<?xml version="1.0" standalone="no"?>
<!DOCTYPE svg PUBLIC "-//W3C//DTD SVG 1.1//EN" "http://www.w3.org/Graphics/SVG/1.1/DTD/svg11.dtd">
<svg xmlns="http://www.w3.org/2000/svg">
<metadata>Generated by Fontastic.me</metadata>
<defs>
<font id="ozythemes" horiz-adv-x="512">
<font-face font-family="ozythemes" units-per-em="512" ascent="480" descent="-32"/>
<missing-glyph horiz-adv-x="512" />

<glyph unicode="&#57344;" d="M464 144l-208 0 0 352c0 9-7 16-16 16-9 0-16-7-16-16l0-352-176 0c-5 0-10-3-13-7-3-5-4-10-2-15l48-112c3-6 9-10 15-10l320 0c6 0 12 4 15 10l48 112c2 5 1 10-2 15-3 4-8 7-13 7z m-59-112l-298 0-35 80 368 0z m-227 312l-96-160c-3-5-3-11 0-16 3-5 8-8 14-8l96 0c9 0 16 7 16 16l0 160c0 7-5 14-12 15-7 2-14-1-18-7z m-2-152l-52 0 52 86z m96 304l0-320c0-9 7-16 16-16 1 0 144 2 144 176 0 174-143 176-144 176-9 0-16-7-16-16z m32-18c31-6 96-31 96-142 0-110-65-136-96-142z"/>
<glyph unicode="&#57345;" d="M144 512c-9 0-16-7-16-16l0-480c0-6 4-12 10-15 6-2 13-1 17 4l101 100 101-100c3-3 7-5 11-5 2 0 4 0 6 1 6 3 10 9 10 15l0 480c0 9-7 16-16 16z m208-457l-85 84c-3 3-7 5-11 5-4 0-8-2-11-5l-85-84 0 425 192 0z"/>
<glyph unicode="&#57346;" d="M155 5l101 100 101-100c3-3 7-5 11-5 2 0 4 0 6 1 6 3 10 9 10 15l0 480c0 9-7 16-16 16l-224 0c-9 0-16-7-16-16l0-480c0-6 4-12 10-15 6-2 13-1 17 4z m5 475l192 0 0-425-85 84c-3 3-7 5-11 5-4 0-8-2-11-5l-85-84z m112-192l0 32 32 0c9 0 16 7 16 16 0 9-7 16-16 16l-32 0 0 32c0 9-7 16-16 16-9 0-16-7-16-16l0-32-32 0c-9 0-16-7-16-16 0-9 7-16 16-16l32 0 0-32c0-9 7-16 16-16 9 0 16 7 16 16z"/>
<glyph unicode="&#57347;" d="M155 5l101 100 101-100c3-3 7-5 11-5 2 0 4 0 6 1 6 3 10 9 10 15l0 480c0 9-7 16-16 16l-224 0c-9 0-16-7-16-16l0-480c0-6 4-12 10-15 6-2 13-1 17 4z m5 475l192 0 0-425-85 84c-3 3-7 5-11 5-4 0-8-2-11-5l-85-84z m133-203c3-3 7-5 11-5 4 0 8 2 11 5 7 6 7 16 0 22l-36 37 36 37c7 6 7 16 0 22-6 7-16 7-22 0l-37-36-37 36c-6 7-16 7-22 0-7-6-7-16 0-22l36-37-36-37c-7-6-7-16 0-22 3-3 7-5 11-5 4 0 8 2 11 5l37 36z"/>
<glyph unicode="&#57348;" d="M0 96c0-9 7-16 16-16l480 0c9 0 16 7 16 16l0 256c0 9-7 16-16 16l-120 0-60 74c-3 4-7 6-12 6l-96 0c-5 0-9-2-12-6l-60-74-120 0c-9 0-16-7-16-16z m144 240c5 0 9 2 12 6l60 74 80 0 60-74c3-4 7-6 12-6l112 0 0-224-384 0 0 224z m-112 0l32 0 0-224-32 0z m224-192c44 0 80 36 80 80 0 44-36 80-80 80-44 0-80-36-80-80 0-44 36-80 80-80z m0 128c26 0 48-22 48-48 0-26-22-48-48-48-26 0-48 22-48 48 0 26 22 48 48 48z m176 0c4 0 8 2 11 5 3 3 5 7 5 11 0 4-2 8-5 11-6 6-16 6-22 0-3-3-5-7-5-11 0-4 2-8 5-11 3-3 7-5 11-5z"/>
<glyph unicode="&#57349;" d="M0 96c0-9 7-16 16-16l480 0c9 0 16 7 16 16l0 288c0 9-7 16-16 16l-336 0 0 32c0 9-7 16-16 16l-80 0c-9 0-16-7-16-16l0-32-32 0c-9 0-16-7-16-16z m80 320l48 0 0-16-48 0z m-48-48l448 0 0-256-448 0z m288-32c-53 0-96-43-96-96 0-53 43-96 96-96 53 0 96 43 96 96 0 53-43 96-96 96z m0-160c-35 0-64 29-64 64 0 35 29 64 64 64 35 0 64-29 64-64 0-35-29-64-64-64z m-192 152l-48 0c-9 0-16-7-16-16 0-9 7-16 16-16l48 0c9 0 16 7 16 16 0 9-7 16-16 16z"/>
<glyph unicode="&#57350;" d="M96 96l336 0c44 0 80 36 80 80 0 39-28 71-65 79-7 90-83 161-175 161-82 0-152-53-173-128l-3 0c-53 0-96-43-96-96 0-53 43-96 96-96z m0 160l16 0c8 0 14 5 16 13 12 67 73 115 144 115 79 0 144-65 144-144 0-9 7-16 16-16 26 0 48-22 48-48 0-26-22-48-48-48l-336 0c-35 0-64 29-64 64 0 35 29 64 64 64z m133-75c3-3 7-5 11-5 4 0 8 2 11 5l80 80c7 6 7 16 0 22-6 7-16 7-22 0l-69-68-37 36c-6 7-16 7-22 0-7-6-7-16 0-22z"/>
<glyph unicode="&#57351;" d="M256 320c-9 0-16-7-16-16l0-217-37 36c-6 7-16 7-22 0-7-6-7-16 0-22l64-64c3-3 7-5 11-5 4 0 8 2 11 5l64 64c7 6 7 16 0 22-6 7-16 7-22 0l-37-36 0 217c0 9-7 16-16 16z m191-1c-7 90-83 161-175 161-82 0-152-53-173-128l-3 0c-53 0-96-43-96-96 0-53 43-96 96-96l96 0c9 0 16 7 16 16 0 9-7 16-16 16l-96 0c-35 0-64 29-64 64 0 35 29 64 64 64l16 0c8 0 14 5 16 13 12 67 73 115 144 115 79 0 144-65 144-144 0-9 7-16 16-16 26 0 48-22 48-48 0-26-22-48-48-48l-112 0c-9 0-16-7-16-16 0-9 7-16 16-16l112 0c44 0 80 36 80 80 0 39-28 71-65 79z"/>
<glyph unicode="&#57352;" d="M447 255c-7 90-83 161-175 161-82 0-152-53-173-128l-3 0c-53 0-96-43-96-96 0-53 43-96 96-96l336 0c44 0 80 36 80 80 0 39-28 71-65 79z m-15-127l-336 0c-35 0-64 29-64 64 0 35 29 64 64 64l16 0c8 0 14 5 16 13 12 67 73 115 144 115 79 0 144-65 144-144 0-9 7-16 16-16 26 0 48-22 48-48 0-26-22-48-48-48z m-117 155c-6 7-16 7-22 0l-29-28-29 28c-6 7-16 7-22 0-7-6-7-16 0-22l28-29-28-29c-7-6-7-16 0-22 3-3 7-5 11-5 4 0 8 2 11 5l29 28 29-28c3-3 7-5 11-5 4 0 8 2 11 5 7 6 7 16 0 22l-28 29 28 29c7 6 7 16 0 22z"/>
<glyph unicode="&#57353;" d="M447 255c-7 90-83 161-175 161-82 0-152-53-173-128l-3 0c-53 0-96-43-96-96 0-53 43-96 96-96l336 0c44 0 80 36 80 80 0 39-28 71-65 79z m-15-127l-336 0c-35 0-64 29-64 64 0 35 29 64 64 64l16 0c8 0 14 5 16 13 12 67 73 115 144 115 79 0 144-65 144-144 0-9 7-16 16-16 26 0 48-22 48-48 0-26-22-48-48-48z"/>
<glyph unicode="&#57354;" d="M256 32c9 0 16 7 16 16l0 217 37-36c3-3 7-5 11-5 4 0 8 2 11 5 7 6 7 16 0 22l-64 64c-6 7-16 7-22 0l-64-64c-7-6-7-16 0-22 6-7 16-7 22 0l37 36 0-217c0-9 7-16 16-16z m191 287c-7 90-83 161-175 161-82 0-152-53-173-128l-3 0c-53 0-96-43-96-96 0-53 43-96 96-96l96 0c9 0 16 7 16 16 0 9-7 16-16 16l-96 0c-35 0-64 29-64 64 0 35 29 64 64 64l16 0c8 0 14 5 16 13 12 67 73 115 144 115 79 0 144-65 144-144 0-9 7-16 16-16 26 0 48-22 48-48 0-26-22-48-48-48l-112 0c-9 0-16-7-16-16 0-9 7-16 16-16l112 0c44 0 80 36 80 80 0 39-28 71-65 79z"/>
<glyph unicode="&#57355;" d="M33 446c-2-7 0-14 5-18l202-171 0-225-88 0c-9 0-16-7-16-16 0-9 7-16 16-16l208 0c9 0 16 7 16 16 0 9-7 16-16 16l-88 0 0 225 202 171c5 4 7 11 5 18-2 6-8 10-15 10l-113 0 28 29c7 6 7 16 0 22-6 7-16 7-22 0l-48-48c-1-1-2-2-3-3l-258 0c-7 0-13-4-15-10z m387-22l-164-139-164 139z"/>
<glyph unicode="&#57356;" d="M80 304l0-224c0-28 17-80 80-80l128 0c63 0 80 52 80 80l0 16 48 0c9 0 16 7 16 16l0 128c0 9-7 16-16 16l-48 0 0 48c0 9-7 16-16 16l-256 0c-9 0-16-7-16-16z m320-80l0-96-32 0 0 96z m-288 64l224 0 0-208c0-8-3-48-48-48l-128 0c-45 0-48 40-48 48z m24 128c-9 0-16-7-16-16l0-32c0-9 7-16 16-16 9 0 16 7 16 16l0 16 64 0c9 0 16 7 16 16l0 48c0 9-7 16-16 16l-40 0 0 32c0 9-7 16-16 16-9 0-16-7-16-16l0-48c0-9 7-16 16-16l40 0 0-16z m128 0c-9 0-16-7-16-16l0-32c0-9 7-16 16-16 9 0 16 7 16 16l0 16 64 0c9 0 16 7 16 16l0 64c0 9-7 16-16 16l-40 0 0 16c0 9-7 16-16 16-9 0-16-7-16-16l0-32c0-9 7-16 16-16l40 0 0-32z"/>
<glyph unicode="&#57357;" d="M256 512c-68 0-133-27-181-75-48-48-75-113-75-181 0-68 27-133 75-181 48-48 113-75 181-75 68 0 133 27 181 75 48 48 75 113 75 181 0 68-27 133-75 181-48 48-113 75-181 75z m158-414c-42-43-98-66-158-66-60 0-116 23-158 66-43 42-66 98-66 158 0 60 23 116 66 158 42 43 98 66 158 66 60 0 116-23 158-66 43-42 66-98 66-158 0-60-23-116-66-158z m-79 164l-64 160c-3 6-8 10-15 10-7 0-12-4-15-10l-64-160c-1-4-1-8 0-12l64-160c3-6 8-10 15-10 7 0 12 4 15 10l64 160c1 4 1 8 0 12z m-79 111l40-101-80 0z m0-234l-40 101 80 0z"/>
<glyph unicode="&#57358;" d="M64 512c-9 0-16-7-16-16l0-128c0-7 4-13 11-15l37-13 0-324c0-9 7-16 16-16 9 0 16 7 16 16l0 324 37 13c7 2 11 8 11 15l0 128c0 9-7 16-16 16-9 0-16-7-16-16l0-116-16-6 0 122c0 9-7 16-16 16-9 0-16-7-16-16l0-122-16 6 0 116c0 9-7 16-16 16z m208-512c9 0 16 7 16 16l0 480c0 9-7 16-16 16l-32 0c-8 0-15-6-16-14l-32-264c-1-8 4-16 12-18l52-12 0-188c0-9 7-16 16-16z m-46 244l28 236 2 0 0-244z m166-244c9 0 16 7 16 16l0 306c33 9 56 45 56 78 0 34-27 112-72 112-45 0-72-78-72-112 0-33 23-69 56-78l0-306c0-9 7-16 16-16z m-40 400c0 33 26 80 40 80 14 0 40-47 40-80 0-22-18-48-40-48-22 0-40 26-40 48z"/>
<glyph unicode="&#57359;" d="M137 320l-41 0c-9 0-16-7-16-16 0-9 7-16 16-16l96 0 0 96c0 9-7 16-16 16-9 0-16-7-16-16l0-41-133 132c-6 7-16 7-22 0-7-6-7-16 0-22z m238-128l41 0c9 0 16 7 16 16 0 9-7 16-16 16l-96 0 0-96c0-9 7-16 16-16 9 0 16 7 16 16l0 41 133-132c3-3 7-5 11-5 4 0 8 2 11 5 7 6 7 16 0 22z m-359-160c4 0 8 2 11 5l133 132 0-41c0-9 7-16 16-16 9 0 16 7 16 16l0 96-96 0c-9 0-16-7-16-16 0-9 7-16 16-16l41 0-132-133c-7-6-7-16 0-22 3-3 7-5 11-5z m469 443l-133-132 0 41c0 9-7 16-16 16-9 0-16-7-16-16l0-96 96 0c9 0 16 7 16 16 0 9-7 16-16 16l-41 0 132 133c7 6 7 16 0 22-6 7-16 7-22 0z"/>
<glyph unicode="&#57360;" d="M141 141c3-3 7-5 11-5 4 0 8 2 11 5l93 92 93-92c3-3 7-5 11-5 4 0 8 2 11 5 7 6 7 16 0 22l-92 93 92 93c7 6 7 16 0 22-6 7-16 7-22 0l-93-92-93 92c-6 7-16 7-22 0-7-6-7-16 0-22l92-93-92-93c-7-6-7-16 0-22z m115-141c68 0 133 27 181 75 48 48 75 113 75 181 0 68-27 133-75 181-48 48-113 75-181 75-68 0-133-27-181-75-48-48-75-113-75-181 0-68 27-133 75-181 48-48 113-75 181-75z m-158 414c42 43 98 66 158 66 60 0 116-23 158-66 43-42 66-98 66-158 0-60-23-116-66-158-42-43-98-66-158-66-60 0-116 23-158 66-43 42-66 98-66 158 0 60 23 116 66 158z"/>
<glyph unicode="&#57361;" d="M0 96c0-9 7-16 16-16l480 0c9 0 16 7 16 16l0 288c0 9-7 16-16 16l-249 0-60 59c-3 3-7 5-11 5l-160 0c-9 0-16-7-16-16z m32 336l137 0 60-59c3-3 7-5 11-5l240 0 0-256-448 0z m299-117c-6 7-16 7-22 0l-53-52-53 52c-6 7-16 7-22 0-7-6-7-16 0-22l52-53-52-53c-7-6-7-16 0-22 3-3 7-5 11-5 4 0 8 2 11 5l53 52 53-52c3-3 7-5 11-5 4 0 8 2 11 5 7 6 7 16 0 22l-52 53 52 53c7 6 7 16 0 22z"/>
<glyph unicode="&#57362;" d="M16 120l112 0 0-80c0-6 4-12 9-15 2-1 5-1 7-1 4 0 7 1 10 4l108 92 234 0c9 0 16 7 16 16l0 336c0 9-7 16-16 16l-480 0c-9 0-16-7-16-16l0-336c0-9 7-16 16-16z m16 336l448 0 0-304-224 0c-4 0-8-1-10-4l-86-73 0 61c0 9-7 16-16 16l-112 0z m152-168l56 0 0-56c0-9 7-16 16-16 9 0 16 7 16 16l0 56 56 0c9 0 16 7 16 16 0 9-7 16-16 16l-56 0 0 56c0 9-7 16-16 16-9 0-16-7-16-16l0-56-56 0c-9 0-16-7-16-16 0-9 7-16 16-16z"/>
<glyph unicode="&#57363;" d="M496 488l-480 0c-9 0-16-7-16-16l0-336c0-9 7-16 16-16l112 0 0-80c0-6 4-12 9-15 2-1 5-1 7-1 4 0 7 1 10 4l108 92 234 0c9 0 16 7 16 16l0 336c0 9-7 16-16 16z m-16-336l-224 0c-4 0-8-1-10-4l-86-73 0 61c0 9-7 16-16 16l-112 0 0 304 448 0z m-291 85c3-3 7-5 11-5 4 0 8 2 11 5l45 44 45-44c3-3 7-5 11-5 4 0 8 2 11 5 7 6 7 16 0 22l-44 45 44 45c7 6 7 16 0 22-6 7-16 7-22 0l-45-44-45 44c-6 7-16 7-22 0-7-6-7-16 0-22l44-45-44-45c-7-6-7-16 0-22z"/>
<glyph unicode="&#57364;" d="M256 208c33 0 64 31 64 64 0 9-7 16-16 16-9 0-16-7-16-16 0-15-17-32-32-32-15 0-32 17-32 32 0 9-7 16-16 16-9 0-16-7-16-16 0-33 31-64 64-64z m-80 128c4 0 8 2 11 5 3 3 5 7 5 11 0 4-2 8-5 11-6 6-16 6-22 0-3-3-5-7-5-11 0-4 2-8 5-11 3-3 7-5 11-5z m160 0c4 0 8 2 11 5 3 3 5 7 5 11 0 4-2 8-5 11-6 6-16 6-22 0-3-3-5-7-5-11 0-4 2-8 5-11 3-3 7-5 11-5z m-336-200c0-9 7-16 16-16l112 0 0-80c0-6 4-12 9-15 2-1 5-1 7-1 4 0 7 1 10 4l108 92 234 0c9 0 16 7 16 16l0 336c0 9-7 16-16 16l-480 0c-9 0-16-7-16-16z m32 320l448 0 0-304-224 0c-4 0-8-1-10-4l-86-73 0 61c0 9-7 16-16 16l-112 0z"/>
<glyph unicode="&#57365;" d="M208 208c9 0 16 7 16 16 0 15 17 32 32 32 15 0 32-17 32-32 0-9 7-16 16-16 9 0 16 7 16 16 0 33-31 64-64 64-33 0-64-31-64-64 0-9 7-16 16-16z m-32 128c4 0 8 2 11 5 3 3 5 7 5 11 0 4-2 8-5 11-6 6-16 6-22 0-3-3-5-7-5-11 0-4 2-8 5-11 3-3 7-5 11-5z m160 0c4 0 8 2 11 5 3 3 5 7 5 11 0 4-2 8-5 11-6 6-16 6-22 0-3-3-5-7-5-11 0-4 2-8 5-11 3-3 7-5 11-5z m-336-200c0-9 7-16 16-16l112 0 0-80c0-6 4-12 9-15 2-1 5-1 7-1 4 0 7 1 10 4l108 92 234 0c9 0 16 7 16 16l0 336c0 9-7 16-16 16l-480 0c-9 0-16-7-16-16z m32 320l448 0 0-304-224 0c-4 0-8-1-10-4l-86-73 0 61c0 9-7 16-16 16l-112 0z"/>
<glyph unicode="&#57366;" d="M80 368l352 0c9 0 16 7 16 16 0 9-7 16-16 16l-352 0c-9 0-16-7-16-16 0-9 7-16 16-16z m0-80l352 0c9 0 16 7 16 16 0 9-7 16-16 16l-352 0c-9 0-16-7-16-16 0-9 7-16 16-16z m368-64c0 9-7 16-16 16l-352 0c-9 0-16-7-16-16 0-9 7-16 16-16l352 0c9 0 16 7 16 16z m-448-88c0-9 7-16 16-16l112 0 0-80c0-6 4-12 9-15 2-1 5-1 7-1 4 0 7 1 10 4l108 92 234 0c9 0 16 7 16 16l0 336c0 9-7 16-16 16l-480 0c-9 0-16-7-16-16z m32 320l448 0 0-304-224 0c-4 0-8-1-10-4l-86-73 0 61c0 9-7 16-16 16l-112 0z"/>
<glyph unicode="&#57367;" d="M256 256c26 0 48 22 48 48 0 26-22 48-48 48-26 0-48-22-48-48 0-26 22-48 48-48z m0 64c9 0 16-7 16-16 0-9-7-16-16-16-9 0-16 7-16 16 0 9 7 16 16 16z m-128-64c26 0 48 22 48 48 0 26-22 48-48 48-26 0-48-22-48-48 0-26 22-48 48-48z m0 64c9 0 16-7 16-16 0-9-7-16-16-16-9 0-16 7-16 16 0 9 7 16 16 16z m256-64c26 0 48 22 48 48 0 26-22 48-48 48-26 0-48-22-48-48 0-26 22-48 48-48z m0 64c9 0 16-7 16-16 0-9-7-16-16-16-9 0-16 7-16 16 0 9 7 16 16 16z m112 168l-480 0c-9 0-16-7-16-16l0-336c0-9 7-16 16-16l112 0 0-80c0-6 4-12 9-15 2-1 5-1 7-1 4 0 7 1 10 4l108 92 234 0c9 0 16 7 16 16l0 336c0 9-7 16-16 16z m-16-336l-224 0c-4 0-8-1-10-4l-86-73 0 61c0 9-7 16-16 16l-112 0 0 304 448 0z"/>
<glyph unicode="&#57368;" d="M380 458c-3 4-7 6-12 6l-224 0c-5 0-9-2-12-6l-128-160c-6-6-5-16 1-21l240-240c3-3 7-5 11-5 4 0 8 2 11 5l240 240c6 5 7 15 1 21z m83-154l-83 0-38 128 18 0z m-329-32l86-165-165 165z m36 0l70 0 0-134z m102 0l70 0-70-134z m106 0l79 0-165-165z m-70 160l38-128-74 0 0 128z m-68-128l-74 0 38 128 36 0z m-88 128l18 0-38-128-83 0z"/>
<glyph unicode="&#57369;" d="M496 512c-9 0-16-7-16-16l0-116-16-6 0 122c0 9-7 16-16 16-9 0-16-7-16-16l0-122-16 6 0 116c0 9-7 16-16 16-9 0-16-7-16-16l0-128c0-7 4-13 11-15l37-13 0-324c0-9 7-16 16-16 9 0 16 7 16 16l0 324 37 13c7 2 11 8 11 15l0 128c0 9-7 16-16 16z m-96-280c0 110-90 200-200 200-110 0-200-90-200-200 0-110 90-200 200-200 110 0 200 90 200 200z m-368 0c0 93 75 168 168 168 93 0 168-75 168-168 0-93-75-168-168-168-93 0-168 75-168 168z m304 0c0 75-61 136-136 136-75 0-136-61-136-136 0-75 61-136 136-136 75 0 136 61 136 136z m-240 0c0 57 47 104 104 104 57 0 104-47 104-104 0-57-47-104-104-104-57 0-104 47-104 104z"/>
<glyph unicode="&#57370;" d="M200 32c110 0 200 90 200 200 0 110-90 200-200 200-110 0-200-90-200-200 0-110 90-200 200-200z m0 368c93 0 168-75 168-168 0-93-75-168-168-168-93 0-168 75-168 168 0 93 75 168 168 168z m0-304c75 0 136 61 136 136 0 75-61 136-136 136-75 0-136-61-136-136 0-75 61-136 136-136z m0 240c57 0 104-47 104-104 0-57-47-104-104-104-57 0-104 47-104 104 0 57 47 104 104 104z m240-336c9 0 16 7 16 16l0 306c33 9 56 45 56 78 0 34-27 112-72 112-45 0-72-78-72-112 0-33 23-69 56-78l0-306c0-9 7-16 16-16z m-40 400c0 33 26 80 40 80 14 0 40-47 40-80 0-22-18-48-40-48-22 0-40 26-40 48z"/>
<glyph unicode="&#57371;" d="M256 320c-9 0-16-7-16-16l0-217-37 36c-6 7-16 7-22 0-7-6-7-16 0-22l64-64c3-3 7-5 11-5 4 0 8 2 11 5l64 64c7 6 7 16 0 22-6 7-16 7-22 0l-37-36 0 217c0 8-7 16-16 16z m240 160l-480 0c-9 0-16-7-16-16l0-288c0-9 7-16 16-16l176 0c9 0 16 7 16 16 0 9-7 16-16 16l-160 0 0 256 448 0 0-256-160 0c-9 0-16-7-16-16 0-9 7-16 16-16l176 0c9 0 16 7 16 16l0 288c0 9-7 16-16 16z"/>
<glyph unicode="&#57372;" d="M0 144c0-9 7-16 16-16l176 0c9 0 16 7 16 16 0 9-7 16-16 16l-160 0 0 320 137 0 60-59c3-3 7-5 11-5l240 0 0-256-160 0c-9 0-16-7-16-16 0-9 7-16 16-16l176 0c9 0 16 7 16 16l0 288c0 9-7 16-16 16l-249 0-60 59c-3 3-7 5-11 5l-160 0c-9 0-16-7-16-16z m256 144c-9 0-16-7-16-16l0-217-37 36c-6 7-16 7-22 0-7-6-7-16 0-22l64-64c3-3 7-5 11-5 4 0 8 2 11 5l64 64c7 6 7 16 0 22-6 7-16 7-22 0l-37-36 0 217c0 9-7 16-16 16z"/>
<glyph unicode="&#57373;" d="M16 320c9 0 16 7 16 16l0 89 141-140c3-3 7-5 11-5 4 0 8 2 11 5 7 6 7 16 0 22l-140 141 89 0c9 0 16 7 16 16 0 9-7 16-16 16l-128 0c-9 0-16-7-16-16l0-128c0-9 7-16 16-16z m0-288l128 0c9 0 16 7 16 16 0 9-7 16-16 16l-89 0 140 141c7 6 7 16 0 22-6 7-16 7-22 0l-141-140 0 89c0 9-7 16-16 16-9 0-16-7-16-16l0-128c0-9 7-16 16-16z m480 160c-9 0-16-7-16-16l0-89-141 140c-6 7-16 7-22 0-7-6-7-16 0-22l140-141-89 0c-9 0-16-7-16-16 0-9 7-16 16-16l128 0c9 0 16 7 16 16l0 128c0 9-7 16-16 16z m0 288l-128 0c-9 0-16-7-16-16 0-9 7-16 16-16l89 0-140-141c-7-6-7-16 0-22 3-3 7-5 11-5 4 0 8 2 11 5l141 140 0-89c0-9 7-16 16-16 9 0 16 7 16 16l0 128c0 9-7 16-16 16z"/>
<glyph unicode="&#57374;" d="M256 392c-167 0-250-122-253-127-4-6-4-13 0-18 3-5 86-127 253-127 167 0 250 122 253 127 4 6 4 13 0 18-3 5-86 127-253 127z m0-240c-124 0-198 77-220 104 22 27 95 104 220 104 124 0 198-77 220-104-22-27-95-104-220-104z m0 176c-40 0-72-32-72-72 0-40 32-72 72-72 40 0 72 32 72 72 0 40-32 72-72 72z m0-112c-22 0-40 18-40 40 0 22 18 40 40 40 22 0 40-18 40-40 0-22-18-40-40-40z"/>
<glyph unicode="&#57375;" d="M336 72l0 64c0 9-7 16-16 16l-304 0c-9 0-16-7-16-16l0-64c0-9 7-16 16-16l304 0c9 0 16 7 16 16z m-32 16l-272 0 0 32 272 0z m-256 112c-9 0-16-7-16-16 0-9 7-16 16-16l240 0c9 0 16 7 16 16 0 9-7 16-16 16z m-32 16l304 0c9 0 16 7 16 16 0 1-2 112-168 112-166 0-168-111-168-112 0-9 7-16 16-16z m152 96c97 0 125-41 133-64l-266 0c8 23 36 64 133 64z m328 64l-82 0-14 83c-2 8-10 14-19 13-8-2-14-10-13-19l13-77-13 0c-4 0-9-2-12-5-3-3-4-7-4-12l16-288c0-8 8-15 16-15l96 0c8 0 16 7 16 15l16 288c0 5-1 9-4 12-3 3-8 5-12 5z m-31-288l-66 0-14 256 94 0z"/>
<glyph unicode="&#57376;" d="M96 512c-9 0-16-7-16-16l0-480c0-9 7-16 16-16 9 0 16 7 16 16l0 240 304 0c6 0 11 3 14 8 3 4 3 10 0 15l-44 89 44 89c3 5 3 11 0 15-3 5-8 8-14 8l-304 0 0 16c0 9-7 16-16 16z m294-64l-36-73c-3-4-3-10 0-14l36-73-278 0 0 160z"/>
<glyph unicode="&#57377;" d="M0 448l0-352c0-9 7-16 16-16l480 0c9 0 16 7 16 16l0 288c0 9-7 16-16 16l-249 0-60 59c-3 3-7 5-11 5l-160 0c-9 0-16-7-16-16z m32-16l137 0 60-59c3-3 7-5 11-5l240 0 0-256-448 0z"/>
<glyph unicode="&#57378;" d="M320 328c0 35-29 64-64 64-35 0-64-29-64-64 0-35 29-64 64-64 35 0 64 29 64 64z m-96 0c0 18 14 32 32 32 18 0 32-14 32-32 0-18-14-32-32-32-18 0-32 14-32 32z m32-328c4 0 9 2 12 5 7 8 173 198 172 323 0 101-83 184-184 184-101 0-184-83-184-184 0-125 165-315 172-323 3-3 7-5 12-5z m0 480c83 0 152-68 152-152 0-95-114-241-152-287-38 46-152 192-152 287 0 84 68 152 152 152z"/>
<glyph unicode="&#57379;" d="M288 480c106 0 192-86 192-192 0-106-86-192-192-192-34 0-63 1-89 14-7 4-17 1-21-7-4-7-1-17 7-21 22-12 46-16 71-17l0-33-48 0c-9 0-16-7-16-16 0-9 7-16 16-16l128 0c9 0 16 7 16 16 0 9-7 16-16 16l-48 0 0 32c124 0 224 100 224 224 0 124-100 224-224 224-9 0-16-7-16-16 0-9 7-16 16-16z m0-360c93 0 168 75 168 168 0 93-75 168-168 168-93 0-168-75-168-168 0-93 75-168 168-168z m0 304c75 0 136-61 136-136 0-75-61-136-136-136-75 0-136 61-136 136 0 75 61 136 136 136z"/>
<glyph unicode="&#57380;" d="M496 32l-16 0 0 224c0 18-14 32-32 32l-48 0c-18 0-32-14-32-32l0-224-16 0 0 384c0 18-14 32-32 32l-48 0c-18 0-32-14-32-32l0-384-16 0 0 144c0 18-14 32-32 32l-48 0c-18 0-32-14-32-32l0-144-80 0 0 64 32 0c9 0 16 7 16 16 0 9-7 16-16 16l-32 0 0 48c9 0 16 7 16 16 0 9-7 16-16 16l0 48 32 0c9 0 16 7 16 16 0 9-7 16-16 16l-32 0 0 48c9 0 16 7 16 16 0 9-7 16-16 16l0 48 32 0c9 0 16 7 16 16 0 9-7 16-16 16l-32 0 0 48c0 9-7 16-16 16-9 0-16-7-16-16l0-464c0-18 14-32 32-32l464 0c9 0 16 7 16 16 0 9-7 16-16 16z m-96 224l48 0 0-224-48 0z m-128 160l48 0 0-384-48 0z m-128-240l48 0 0-144-48 0z"/>
<glyph unicode="&#57381;" d="M496 32l-464 0 0 64 32 0c9 0 16 7 16 16 0 9-7 16-16 16l-32 0 0 48c9 0 16 7 16 16 0 9-7 16-16 16l0 48 32 0c9 0 16 7 16 16 0 9-7 16-16 16l-32 0 0 48c9 0 16 7 16 16 0 9-7 16-16 16l0 48 32 0c9 0 16 7 16 16 0 9-7 16-16 16l-32 0 0 48c0 9-7 16-16 16-9 0-16-7-16-16l0-464c0-18 14-32 32-32l464 0c9 0 16 7 16 16 0 9-7 16-16 16z m-245 331l-80 80c-6 7-16 7-22 0-7-6-7-16 0-22l68-69-36-37c-7-6-7-16 0-22l164-165-41 0c-9 0-16-7-16-16 0-9 7-16 16-16l80 0c1 0 2 0 3 0 1 0 1 1 2 1 0 0 1 0 1 0 1 0 1 1 2 1 0 0 0 0 1 1 2 1 3 2 4 4 1 1 1 1 1 1 0 1 1 1 1 2 0 0 0 1 0 1 0 1 1 1 1 2 0 1 0 2 0 3l0 80c0 9-7 16-16 16-9 0-16-7-16-16l0-41-153 153 36 37c7 6 7 16 0 22z"/>
<glyph unicode="&#57382;" d="M496 32l-464 0 0 64 32 0c9 0 16 7 16 16 0 9-7 16-16 16l-32 0 0 48c9 0 16 7 16 16 0 9-7 16-16 16l0 48 32 0c9 0 16 7 16 16 0 9-7 16-16 16l-32 0 0 48c9 0 16 7 16 16 0 9-7 16-16 16l0 48 32 0c9 0 16 7 16 16 0 9-7 16-16 16l-32 0 0 48c0 9-7 16-16 16-9 0-16-7-16-16l0-464c0-18 14-32 32-32l464 0c9 0 16 7 16 16 0 9-7 16-16 16z m-48 208c9 0 16 7 16 16l0 80c0 1 0 2 0 3 0 1-1 1-1 2 0 0 0 1 0 1 0 1-1 1-1 2 0 0 0 0-1 1-1 2-2 3-4 4-1 1-1 1-1 1-1 0-1 1-2 1 0 0-1 0-1 0-1 0-1 1-2 1-1 0-2 0-3 0l-80 0c-9 0-16-7-16-16 0-9 7-16 16-16l41 0-153-153-37 36c-6 7-16 7-22 0l-80-80c-7-6-7-16 0-22 3-3 7-5 11-5 4 0 8 2 11 5l69 68 37-36c6-7 16-7 22 0l165 164 0-41c0-9 7-16 16-16z"/>
<glyph unicode="&#57383;" d="M363 235c-6 7-16 7-22 0l-13-12-129 129 84 85c7 6 7 16 0 22l-32 32c-6 7-16 7-22 0 0 0-18-16-39-16-12 0-23 5-35 16-6 7-16 7-22 0l-128-128c-7-6-7-16 0-22l80-80c3-3 7-5 11-5 4 0 8 2 11 5l69 68 129-129-12-13c-7-6-7-16 0-22l144-144c3-3 7-5 11-5 4 0 8 2 11 5l48 48c7 6 7 16 0 22z m-267 60l-57 57 106 106c14-10 29-15 45-15 21 0 38 8 49 16l10-11z m352-240l-121 121 25 25 121-121z"/>
<glyph unicode="&#57384;" d="M224 160c0 9-7 16-16 16-9 0-16-7-16-16 0-33 31-64 64-64 33 0 64 31 64 64 0 9-7 16-16 16-9 0-16-7-16-16 0-15-17-32-32-32-15 0-32 17-32 32z m-37 75c-6 6-16 6-22 0-3-3-5-7-5-11 0-4 2-8 5-11 3-3 7-5 11-5 4 0 8 2 11 5 3 3 5 7 5 11 0 4-2 8-5 11z m149-27c4 0 8 2 11 5 3 3 5 7 5 11 0 4-2 8-5 11-6 6-16 6-22 0-3-3-5-7-5-11 0-4 2-8 5-11 3-3 7-5 11-5z m-80 312c-5 0-9-2-12-6-7-9-173-214-172-338 0-100 80-176 184-176 105 0 184 76 184 176 0 124-164 329-171 338-3 4-8 6-13 6z m0-488c-86 0-152 62-152 144 0 95 114 252 152 302 38-50 152-207 152-302 0-82-65-144-152-144z"/>
<glyph unicode="&#57385;" d="M96 72l16 0c9 0 16 7 16 16l0 208c0 5 1 112 128 112 126 0 128-107 128-112l0-208c0-9 7-16 16-16l16 0c53 0 96 43 96 96 0 53-43 96-96 96l0 32c0 1-2 144-160 144-158 0-160-143-160-144l0-32c-53 0-96-43-96-96 0-53 43-96 96-96z m384 96c0-35-29-64-64-64l0 128c35 0 64-29 64-64z m-384 64l0-128c-35 0-64 29-64 64 0 35 29 64 64 64z"/>
<glyph unicode="&#57386;" d="M384 488c-56 0-104-28-128-69-24 41-72 69-128 69-84 0-128-72-128-144 0-167 238-312 248-318 2-1 5-2 8-2 3 0 6 1 8 2 10 6 248 151 248 318 0 72-44 144-128 144z m-128-429c-41 27-224 152-224 285 0 54 30 112 96 112 54 0 112-37 112-96 0-9 7-16 16-16 9 0 16 7 16 16 0 59 58 96 112 96 66 0 96-58 96-112 0-133-183-258-224-285z"/>
<glyph unicode="&#57387;" d="M248 26l8-5 8 5c10 6 248 151 248 318 0 72-44 144-128 144-56 0-104-28-128-69-24 41-72 69-128 69-84 0-128-72-128-144 0-167 238-312 248-318z m136 430c66 0 96-58 96-112 0-129-171-250-220-282l39 39c7 6 7 16 0 22l-36 37 36 37c7 6 7 16 0 22l-36 37 52 53c7 6 7 16 0 22l-42 42c8 52 61 83 111 83z m-256 0c54 0 112-37 112-96l2 0c1-1 2-2 3-3l36-37-52-53c-7-6-7-16 0-22l36-37-36-37c-7-6-7-16 0-22l36-37-35-35c-65 45-198 153-198 267 0 54 30 112 96 112z"/>
<glyph unicode="&#57388;" d="M320 0l96 0c9 0 16 7 16 16l0 224 64 0c6 0 12 4 15 10 2 6 1 13-4 17l-240 240c-6 7-16 7-22 0l-240-240c-5-4-6-11-4-17 3-6 9-10 15-10l64 0 0-224c0-9 7-16 16-16l96 0c9 0 16 7 16 16l0 112 96 0 0-112c0-9 7-16 16-16z m-128 160c-9 0-16-7-16-16l0-112-64 0 0 224c0 9-7 16-16 16l-41 0 201 201 201-201-41 0c-9 0-16-7-16-16l0-224-64 0 0 112c0 9-7 16-16 16z"/>
<glyph unicode="&#57389;" d="M400 384l0 48 32 0c9 0 16 7 16 16l0 48c0 9-7 16-16 16l-352 0c-9 0-16-7-16-16l0-48c0-9 7-16 16-16l32 0 0-48c0-56 32-104 78-128-46-24-78-72-78-128l0-48-32 0c-9 0-16-7-16-16l0-48c0-9 7-16 16-16l352 0c9 0 16 7 16 16l0 48c0 9-7 16-16 16l-32 0 0 48c0 56-32 104-78 128 46 24 78 72 78 128z m-304 96l320 0 0-16-320 0z m320-448l-320 0 0 16 320 0z m-48 96l0-48-224 0 0 48c0 62 50 112 112 112 62 0 112-50 112-112z m-112 144c-62 0-112 50-112 112l0 48 224 0 0-48c0-62-50-112-112-112z"/>
<glyph unicode="&#57390;" d="M16 72l480 0c9 0 16 7 16 16l0 336c0 9-7 16-16 16l-480 0c-9 0-16-7-16-16l0-336c0-9 7-16 16-16z m16 32l0 25 159 145 86-85c3-4 7-5 12-5 5 0 9 3 12 6l37 50 142-127 0-9z m448 304l0-252-133 120c-4 3-8 4-13 4-4-1-8-3-11-6l-37-50-83 83c-6 6-15 7-22 1l-149-136 0 236z m-72-128c31 0 56 25 56 56 0 31-25 56-56 56-31 0-56-25-56-56 0-31 25-56 56-56z m0 80c13 0 24-11 24-24 0-13-11-24-24-24-13 0-24 11-24 24 0 13 11 24 24 24z"/>
<glyph unicode="&#57391;" d="M400 368c-56 0-103-42-111-96l-273 0c-9 0-16-7-16-16 0-9 7-16 16-16l16 0 0-48c0-9 7-16 16-16 9 0 16 7 16 16l0 48 32 0 0-16c0-9 7-16 16-16 9 0 16 7 16 16l0 16 161 0c8-54 55-96 111-96 62 0 112 50 112 112 0 62-50 112-112 112z m0-192c-44 0-80 36-80 80 0 44 36 80 80 80 44 0 80-36 80-80 0-44-36-80-80-80z"/>
<glyph unicode="&#57392;" d="M256 512c-141 0-256-115-256-256 0-141 115-256 256-256 141 0 256 115 256 256 0 141-115 256-256 256z m215-192l-87 0c-3 0-5-1-7-2-13 25-34 46-59 59 1 2 2 4 2 7l0 87c72-22 129-79 151-151z m-83-32l90 0c1-10 2-21 2-32 0-11-1-22-2-32l-90 0c3 10 4 21 4 32 0 11-1 22-4 32z m-132-136c-57 0-104 47-104 104 0 57 47 104 104 104 57 0 104-47 104-104 0-57-47-104-104-104z m32 326l0-90c-10 3-21 4-32 4-11 0-22-1-32-4l0 90c10 1 21 2 32 2 11 0 22-1 32-2z m-96-7l0-87c0-3 1-5 2-7-25-13-46-34-59-59-2 1-4 2-7 2l-87 0c22 72 79 129 151 151z m-160-215c0 11 1 22 2 32l90 0c-3-10-4-21-4-32 0-11 1-22 4-32l-90 0c-1 10-2 21-2 32z m9-64l87 0c3 0 5 1 7 2 13-25 34-46 59-59-1-2-2-4-2-7l0-87c-72 22-129 79-151 151z m183-158l0 90c10-3 21-4 32-4 11 0 22 1 32 4l0-90c-10-1-21-2-32-2-11 0-22 1-32 2z m96 7l0 87c0 3-1 5-2 7 25 13 46 34 59 59 2-1 4-2 7-2l87 0c-22-72-79-129-151-151z"/>
<glyph unicode="&#57393;" d="M16 336l48 0c9 0 16 7 16 16 0 9-7 16-16 16l-48 0c-9 0-16-7-16-16 0-9 7-16 16-16z m480 32l-320 0c-9 0-16-7-16-16 0-9 7-16 16-16l320 0c9 0 16 7 16 16 0 9-7 16-16 16z m-480-128l48 0c9 0 16 7 16 16 0 9-7 16-16 16l-48 0c-9 0-16-7-16-16 0-9 7-16 16-16z m480 32l-320 0c-9 0-16-7-16-16 0-9 7-16 16-16l320 0c9 0 16 7 16 16 0 9-7 16-16 16z m-480-128l48 0c9 0 16 7 16 16 0 9-7 16-16 16l-48 0c-9 0-16-7-16-16 0-9 7-16 16-16z m480 32l-320 0c-9 0-16-7-16-16 0-9 7-16 16-16l320 0c9 0 16 7 16 16 0 9-7 16-16 16z"/>
<glyph unicode="&#57394;" d="M112 368l0-112-48 0c-9 0-16-7-16-16l0-224c0-9 7-16 16-16l384 0c9 0 16 7 16 16l0 224c0 9-7 16-16 16l-48 0 0 112c0 79-65 144-144 144-79 0-144-65-144-144z m320-336l-352 0 0 192 352 0z m-176 448c62 0 112-50 112-112l0-112-224 0 0 112c0 62 50 112 112 112z m0-288c-26 0-48-22-48-48 0-21 13-39 32-45l0-19c0-9 7-16 16-16 9 0 16 7 16 16l0 19c19 6 32 24 32 45 0 26-22 48-48 48z m0-64c-9 0-16 7-16 16 0 9 7 16 16 16 9 0 16-7 16-16 0-9-7-16-16-16z"/>
<glyph unicode="&#57395;" d="M48 240l0-224c0-9 7-16 16-16l384 0c9 0 16 7 16 16l0 224c0 9-7 16-16 16l-304 0 0 112c0 62 50 112 112 112 62 0 112-50 112-112l0-32c0-9 7-16 16-16 9 0 16 7 16 16l0 32c0 79-65 144-144 144-79 0-144-65-144-144l0-112-48 0c-9 0-16-7-16-16z m32-16l352 0 0-192-352 0z m176-32c-26 0-48-22-48-48 0-21 13-39 32-45l0-19c0-9 7-16 16-16 9 0 16 7 16 16l0 19c19 6 32 24 32 45 0 26-22 48-48 48z m0-64c-9 0-16 7-16 16 0 9 7 16 16 16 9 0 16-7 16-16 0-9-7-16-16-16z"/>
<glyph unicode="&#57396;" d="M96 0l320 0c9 0 16 7 16 16l0 480c0 9-7 16-16 16l-320 0c-9 0-16-7-16-16l0-480c0-9 7-16 16-16z m16 480l288 0 0-448-288 0z m144-192c-62 0-112-50-112-112 0-62 50-112 112-112 62 0 112 50 112 112 0 62-50 112-112 112z m0-192c-44 0-80 36-80 80 0 44 36 80 80 80 44 0 80-36 80-80 0-44-36-80-80-80z m0 224c35 0 64 29 64 64 0 35-29 64-64 64-35 0-64-29-64-64 0-35 29-64 64-64z m0 96c18 0 32-14 32-32 0-18-14-32-32-32-18 0-32 14-32 32 0 18 14 32 32 32z m0-216c-13 0-24-11-24-24 0-13 11-24 24-24 13 0 24 11 24 24 0 13-11 24-24 24z m0-32c-4 0-8 4-8 8 0 4 4 8 8 8 4 0 8-4 8-8 0-4-4-8-8-8z"/>
<glyph unicode="&#57397;" d="M363 219c-6 7-16 7-22 0l-13-12-30 30c24 29 38 66 38 107 0 93-75 168-168 168-93 0-168-75-168-168 0-93 75-168 168-168 41 0 78 14 107 38l30-30-12-13c-7-6-7-16 0-22l144-144c3-3 7-5 11-5 4 0 8 2 11 5l48 48c7 6 7 16 0 22z m-331 125c0 75 61 136 136 136 75 0 136-61 136-136 0-75-61-136-136-136-75 0-136 61-136 136z m416-305l-121 121 25 25 121-121z"/>
<glyph unicode="&#57398;" d="M363 219c-6 7-16 7-22 0l-13-12-30 30c24 29 38 66 38 107 0 93-75 168-168 168-93 0-168-75-168-168 0-93 75-168 168-168 41 0 78 14 107 38l30-30-12-13c-7-6-7-16 0-22l144-144c3-3 7-5 11-5 4 0 8 2 11 5l48 48c7 6 7 16 0 22z m-331 125c0 75 61 136 136 136 75 0 136-61 136-136 0-75-61-136-136-136-75 0-136 61-136 136z m416-305l-121 121 25 25 121-121z m-208 321l-144 0c-9 0-16-7-16-16 0-9 7-16 16-16l144 0c9 0 16 7 16 16 0 9-7 16-16 16z"/>
<glyph unicode="&#57399;" d="M168 176c41 0 78 14 107 38l30-30-12-13c-7-6-7-16 0-22l144-144c3-3 7-5 11-5 4 0 8 2 11 5l48 48c7 6 7 16 0 22l-144 144c-6 7-16 7-22 0l-13-12-30 30c24 29 38 66 38 107 0 93-75 168-168 168-93 0-168-75-168-168 0-93 75-168 168-168z m305-112l-25-25-121 121 25 25z m-305 416c75 0 136-61 136-136 0-75-61-136-136-136-75 0-136 61-136 136 0 75 61 136 136 136z m-72-152l56 0 0-56c0-9 7-16 16-16 9 0 16 7 16 16l0 56 56 0c9 0 16 7 16 16 0 9-7 16-16 16l-56 0 0 56c0 9-7 16-16 16-9 0-16-7-16-16l0-56-56 0c-9 0-16-7-16-16 0-9 7-16 16-16z"/>
<glyph unicode="&#57400;" d="M496 416l-480 0c-9 0-16-7-16-16l0-288c0-9 7-16 16-16l480 0c9 0 16 7 16 16l0 288c0 9-7 16-16 16z m-51-32l-189-117-189 117z m-413-256l0 240 224-139 224 139 0-240z"/>
<glyph unicode="&#57401;" d="M502 319l-70 28 0 149c0 9-7 16-16 16l-320 0c-9 0-16-7-16-16l0-149-70-28c-6-3-10-9-10-15l0-288c0-9 7-16 16-16l480 0c9 0 16 7 16 16l0 288c0 6-4 12-10 15z m-38-19l-32-20 0 32z m-64 180l0-220-144-89-144 89 0 220z m-320-200l-32 20 32 12z m-48-248l0 240 216-134c2-1 5-2 8-2 3 0 6 1 8 2l216 134 0-240z m256 384l64 0c9 0 16 7 16 16 0 9-7 16-16 16l-64 0c-9 0-16-7-16-16 0-9 7-16 16-16z m-128-64l192 0c9 0 16 7 16 16 0 9-7 16-16 16l-192 0c-9 0-16-7-16-16 0-9 7-16 16-16z m0-64l192 0c9 0 16 7 16 16 0 9-7 16-16 16l-192 0c-9 0-16-7-16-16 0-9 7-16 16-16z"/>
<glyph unicode="&#57402;" d="M505 485c-4 3-10 4-15 2l-154-62-154 62c-4 1-8 1-12 0l-160-64c-6-3-10-8-10-15l0-368c0-5 3-10 7-13 3-2 6-3 9-3 2 0 4 0 6 1l154 62 154-62c4-1 8-1 12 0l160 64c6 3 10 8 10 15l0 368c0 5-3 10-7 13z m-313-37l128-51 0-333-128 51z m-160-51l128 51 0-333-128-51z m448-282l-128-51 0 333 128 51z"/>
<glyph unicode="&#57403;" d="M496 384l-136 0 0 48c0 9-7 16-16 16l-176 0c-9 0-16-7-16-16l0-48-136 0c-9 0-16-7-16-16l0-288c0-9 7-16 16-16l480 0c9 0 16 7 16 16l0 288c0 9-7 16-16 16z m-312 32l144 0 0-32-144 0z m296-320l-448 0 0 256 448 0z m-208 144l0 64c0 9-7 16-16 16-9 0-16-7-16-16l0-64-64 0c-9 0-16-7-16-16 0-9 7-16 16-16l64 0 0-64c0-9 7-16 16-16 9 0 16 7 16 16l0 64 64 0c9 0 16 7 16 16 0 9-7 16-16 16z"/>
<glyph unicode="&#57404;" d="M240 161l0-129-104 0c-9 0-16-7-16-16 0-9 7-16 16-16l240 0c9 0 16 7 16 16 0 9-7 16-16 16l-104 0 0 129c67 10 128 76 128 143 0 9-7 16-16 16-9 0-16-7-16-16 0-55-57-112-112-112-55 0-112 57-112 112 0 9-7 16-16 16-9 0-16-7-16-16 0-67 61-133 128-143z m16 63c44 0 80 36 80 80l0 128c0 44-36 80-80 80-44 0-80-36-80-80l0-128c0-44 36-80 80-80z m0 256c26 0 48-22 48-48l0-8-16 0c-9 0-16-7-16-16 0-9 7-16 16-16l16 0 0-32-16 0c-9 0-16-7-16-16 0-9 7-16 16-16l16 0 0-24c0-26-22-48-48-48-26 0-48 22-48 48l0 24 16 0c9 0 16 7 16 16 0 9-7 16-16 16l-16 0 0 32 16 0c9 0 16 7 16 16 0 9-7 16-16 16l-16 0 0 8c0 26 22 48 48 48z"/>
<glyph unicode="&#57405;" d="M37 69l64-64c3-3 7-5 11-5l48 0c4 0 8 2 11 5l165 164 25-25-52-53c-7-6-7-16 0-22 6-7 16-7 22 0l64 64c7 6 7 16 0 22l-48 48c-6 7-16 7-22 0l-172-171-34 0-48 48 9 9 21-20c3-3 7-5 11-5 4 0 8 2 11 5l207 207c10-3 20-4 30-4 66 0 120 54 120 120 0 66-54 120-120 120-66 0-120-54-120-120 0-10 1-20 4-30l-207-207c-7-6-7-16 0-22l20-21-20-21c-7-6-7-16 0-22z m323 411c49 0 88-39 88-88 0-49-39-88-88-88-49 0-88 39-88 88 0 49 39 88 88 88z m-61-191l-43-42-41 41 42 43c10-17 25-32 42-42z m-107-24l41-41-121-121-41 41z"/>
<glyph unicode="&#57406;" d="M256 512c-68 0-133-27-181-75-48-48-75-113-75-181 0-68 27-133 75-181 48-48 113-75 181-75 68 0 133 27 181 75 48 48 75 113 75 181 0 68-27 133-75 181-48 48-113 75-181 75z m158-414c-42-43-98-66-158-66-60 0-116 23-158 66-43 42-66 98-66 158 0 60 23 116 66 158 42 43 98 66 158 66 60 0 116-23 158-66 43-42 66-98 66-158 0-60-23-116-66-158z m-14 174l-288 0c-9 0-16-7-16-16 0-9 7-16 16-16l288 0c9 0 16 7 16 16 0 9-7 16-16 16z"/>
<glyph unicode="&#57407;" d="M496 464l-416 0c-9 0-16-7-16-16l0-48-48 0c-9 0-16-7-16-16l0-320c0-9 7-16 16-16l416 0c9 0 16 7 16 16l0 48 48 0c9 0 16 7 16 16l0 320c0 9-7 16-16 16z m-80-96l0-253-86 73c-5 5-12 5-18 2l-69-41-103 118c-3 3-7 5-11 5-5 0-9-2-12-5l-85-84 0 185z m-384-231l95 96 101-116c5-5 14-7 20-3l70 42 89-76-375 0z m448 7l-32 0 0 240c0 9-7 16-16 16l-336 0 0 32 384 0z m-152 80c31 0 56 25 56 56 0 31-25 56-56 56-31 0-56-25-56-56 0-31 25-56 56-56z m0 80c13 0 24-11 24-24 0-13-11-24-24-24-13 0-24 11-24 24 0 13 11 24 24 24z"/>
<glyph unicode="&#57408;" d="M256 512c-68 0-133-27-181-75-48-48-75-113-75-181 0-68 27-133 75-181 48-48 113-75 181-75 68 0 133 27 181 75 48 48 75 113 75 181 0 68-27 133-75 181-48 48-113 75-181 75z m158-414c-42-43-98-66-158-66-60 0-116 23-158 66-43 42-66 98-66 158 0 60 23 116 66 158 42 43 98 66 158 66 60 0 116-23 158-66 43-42 66-98 66-158 0-60-23-116-66-158z m-183 260c-6 3-12 2-17-1l-112-88c-4-3-6-8-6-13 0-5 2-10 6-13l112-88c3-2 6-3 10-3 2 0 5 1 7 2 6 2 9 8 9 14l0 176c0 6-3 12-9 14z m-23-157l-70 55 70 55z m183 157c-6 3-12 2-17-1l-112-88c-4-3-6-8-6-13 0-5 2-10 6-13l112-88c3-2 6-3 10-3 2 0 5 1 7 2 6 2 9 8 9 14l0 176c0 6-3 12-9 14z m-23-157l-70 55 70 55z"/>
<glyph unicode="&#57409;" d="M256 512c-68 0-133-27-181-75-48-48-75-113-75-181 0-68 27-133 75-181 48-48 113-75 181-75 68 0 133 27 181 75 48 48 75 113 75 181 0 68-27 133-75 181-48 48-113 75-181 75z m158-414c-42-43-98-66-158-66-60 0-116 23-158 66-43 42-66 98-66 158 0 60 23 116 66 158 42 43 98 66 158 66 60 0 116-23 158-66 43-42 66-98 66-158 0-60-23-116-66-158z m-151 260c-6 3-12 2-17-1l-112-88c-4-3-6-8-6-13 0-5 2-10 6-13l112-88c3-2 6-3 10-3 2 0 5 1 7 2 6 2 9 8 9 14l0 176c0 6-3 12-9 14z m-23-157l-70 55 70 55z m166 156l-112-88c-4-3-6-8-6-13 0-5 2-10 6-13l112-88c3-2 6-3 10-3 2 0 5 1 7 2 6 2 9 8 9 14l0 176c0 6-3 12-9 14-6 3-12 2-17-1z m-6-156l-70 55 70 55z m-304 143c-9 0-16-7-16-16l0-144c0-9 7-16 16-16 9 0 16 7 16 16l0 144c0 9-7 16-16 16z"/>
<glyph unicode="&#57410;" d="M256 512c-68 0-133-27-181-75-48-48-75-113-75-181 0-68 27-133 75-181 48-48 113-75 181-75 68 0 133 27 181 75 48 48 75 113 75 181 0 68-27 133-75 181-48 48-113 75-181 75z m158-414c-42-43-98-66-158-66-60 0-116 23-158 66-43 42-66 98-66 158 0 60 23 116 66 158 42 43 98 66 158 66 60 0 116-23 158-66 43-42 66-98 66-158 0-60-23-116-66-158z m-145 264c-6 8-20 8-26 0l-88-112c-3-5-4-11-1-17 2-5 8-9 14-9l176 0c6 0 12 4 14 9 3 6 2 12-1 17z m-68-106l55 70 55-70z m135-48l-160 0c-9 0-16-7-16-16 0-9 7-16 16-16l160 0c9 0 16 7 16 16 0 9-7 16-16 16z"/>
<glyph unicode="&#57411;" d="M256 512c-68 0-133-27-181-75-48-48-75-113-75-181 0-68 27-133 75-181 48-48 113-75 181-75 68 0 133 27 181 75 48 48 75 113 75 181 0 68-27 133-75 181-48 48-113 75-181 75z m158-414c-42-43-98-66-158-66-60 0-116 23-158 66-43 42-66 98-66 158 0 60 23 116 66 158 42 43 98 66 158 66 60 0 116-23 158-66 43-42 66-98 66-158 0-60-23-116-66-158z m-4 171l-112 88c-5 3-12 4-17 1-5-2-9-8-9-14l0-176c0-6 4-12 9-14 2-1 5-2 7-2 4 0 7 1 10 3l112 88c4 3 6 8 6 13 0 5-2 10-6 13z m-106-68l0 110 70-55z m-54 68l-112 88c-5 3-12 4-17 1-5-2-9-8-9-14l0-176c0-6 4-12 9-14 2-1 5-2 7-2 4 0 7 1 10 3l112 88c4 3 6 8 6 13 0 5-2 10-6 13z m-106-68l0 110 70-55z"/>
<glyph unicode="&#57412;" d="M256 512c-68 0-133-27-181-75-48-48-75-113-75-181 0-68 27-133 75-181 48-48 113-75 181-75 68 0 133 27 181 75 48 48 75 113 75 181 0 68-27 133-75 181-48 48-113 75-181 75z m158-414c-42-43-98-66-158-66-60 0-116 23-158 66-43 42-66 98-66 158 0 60 23 116 66 158 42 43 98 66 158 66 60 0 116-23 158-66 43-42 66-98 66-158 0-60-23-116-66-158z m-36 171l-112 88c-5 3-11 4-17 1-5-2-9-8-9-14l0-176c0-6 4-12 9-14 2-1 5-2 7-2 4 0 7 1 10 3l112 88c4 3 6 8 6 13 0 5-2 10-6 13z m-106-68l0 110 70-55z m-54 68l-112 88c-5 3-12 4-17 1-5-2-9-8-9-14l0-176c0-6 4-12 9-14 2-1 5-2 7-2 4 0 7 1 10 3l112 88c4 3 6 8 6 13 0 5-2 10-6 13z m-106-68l0 110 70-55z m288 127l0-144c0-9 7-16 16-16 9 0 16 7 16 16l0 144c0 9-7 16-16 16-9 0-16-7-16-16z"/>
<glyph unicode="&#57413;" d="M192 344c-9 0-16-7-16-16l0-144c0-9 7-16 16-16 9 0 16 7 16 16l0 144c0 9-7 16-16 16z m128 0c-9 0-16-7-16-16l0-144c0-9 7-16 16-16 9 0 16 7 16 16l0 144c0 9-7 16-16 16z m-64 168c-68 0-133-27-181-75-48-48-75-113-75-181 0-68 27-133 75-181 48-48 113-75 181-75 68 0 133 27 181 75 48 48 75 113 75 181 0 68-27 133-75 181-48 48-113 75-181 75z m158-414c-42-43-98-66-158-66-60 0-116 23-158 66-43 42-66 98-66 158 0 60 23 116 66 158 42 43 98 66 158 66 60 0 116-23 158-66 43-42 66-98 66-158 0-60-23-116-66-158z"/>
<glyph unicode="&#57414;" d="M256 512c-68 0-133-27-181-75-48-48-75-113-75-181 0-68 27-133 75-181 48-48 113-75 181-75 68 0 133 27 181 75 48 48 75 113 75 181 0 68-27 133-75 181-48 48-113 75-181 75z m158-414c-42-43-98-66-158-66-60 0-116 23-158 66-43 42-66 98-66 158 0 60 23 116 66 158 42 43 98 66 158 66 60 0 116-23 158-66 43-42 66-98 66-158 0-60-23-116-66-158z m-76 171l-112 88c-5 3-11 4-17 1-6-2-9-8-9-14l0-176c0-6 3-12 9-14 2-1 5-2 7-2 4 0 7 1 10 3l112 88c4 3 6 8 6 13 0 5-2 10-6 13z m-106-68l0 110 70-55z"/>
<glyph unicode="&#57415;" d="M511 389c0 0 0 1 0 1 0 1-1 1-1 2 0 0 0 0-1 1 0 1-1 2-2 2l-64 64c-6 7-16 7-22 0-7-6-7-16 0-22l36-37-80 0-256-256-105 0c-9 0-16-7-16-16 0-9 7-16 16-16l119 0 256 256 66 0-36-37c-7-6-7-16 0-22 3-3 7-5 11-5 4 0 8 2 11 5l64 64c1 0 2 1 2 2 1 1 1 1 1 1 0 1 1 1 1 2 0 0 0 1 0 1 0 1 1 1 1 2 0 2 0 4 0 6 0 1-1 1-1 2z m0-267c0 0 0 1 0 1 0 1 1 1 1 2 0 2 0 4 0 6 0 1-1 1-1 2 0 0 0 1 0 1 0 1-1 1-1 2 0 0 0 0-1 1 0 1-1 2-2 2l-64 64c-6 7-16 7-22 0-7-6-7-16 0-22l36-37-66 0-76 75c-6 7-16 7-22 0-7-6-7-16 0-22l84-85 80 0-36-37c-7-6-7-16 0-22 3-3 7-5 11-5 4 0 8 2 11 5l64 64c1 0 2 1 2 2 1 1 1 1 1 1 0 1 1 1 1 2z m-495 246l105 0 76-75c3-3 7-5 11-5 4 0 8 2 11 5 7 6 7 16 0 22l-84 85-119 0c-9 0-16-7-16-16 0-9 7-16 16-16z"/>
<glyph unicode="&#57416;" d="M432 144l-336 0 0 137 37-36c3-3 7-5 11-5 4 0 8 2 11 5 7 6 7 16 0 22l-64 64c0 1-1 2-2 2-1 1-1 1-1 1-1 0-1 1-2 1 0 0-1 0-1 0-1 0-1 1-2 1-2 0-4 0-6 0-1 0-1-1-2-1 0 0-1 0-1 0-1 0-1-1-2-1 0 0 0 0-1-1-1 0-2-1-2-2l-64-64c-7-6-7-16 0-22 6-7 16-7 22 0l37 36 0-153c0-9 7-16 16-16l352 0c9 0 16 7 16 16 0 9-7 16-16 16z m53 123l-37-36 0 153c0 9-7 16-16 16l-352 0c-9 0-16-7-16-16 0-9 7-16 16-16l336 0 0-137-37 36c-6 7-16 7-22 0-7-6-7-16 0-22l64-64c0-1 1-2 2-2 1-1 1-1 1-1 1 0 1-1 2-1 0 0 1 0 1 0 1 0 1-1 2-1 1 0 2 0 3 0 1 0 2 0 3 0 1 0 1 1 2 1 0 0 1 0 1 0 1 0 1 1 2 1 0 0 0 0 1 1 1 0 2 1 2 2l64 64c7 6 7 16 0 22-6 7-16 7-22 0z"/>
<glyph unicode="&#57417;" d="M256 512c-68 0-133-27-181-75-48-48-75-113-75-181 0-68 27-133 75-181 48-48 113-75 181-75 68 0 133 27 181 75 48 48 75 113 75 181 0 68-27 133-75 181-48 48-113 75-181 75z m158-414c-42-43-98-66-158-66-60 0-116 23-158 66-43 42-66 98-66 158 0 60 23 116 66 158 42 43 98 66 158 66 60 0 116-23 158-66 43-42 66-98 66-158 0-60-23-116-66-158z m-78 254l-160 0c-9 0-16-7-16-16l0-160c0-9 7-16 16-16l160 0c9 0 16 7 16 16l0 160c0 9-7 16-16 16z m-16-160l-128 0 0 128 128 0z"/>
<glyph unicode="&#57418;" d="M144 0c44 0 80 36 80 80l0 227 192 41 0-156c-13 10-30 16-48 16-44 0-80-36-80-80 0-44 36-80 80-80 44 0 80 36 80 80l0 368c0 5-2 9-6 12-4 3-9 5-13 4l-224-48c-8-2-13-8-13-16l0-304c-13 10-30 16-48 16-44 0-80-36-80-80 0-44 36-80 80-80z m224 80c-26 0-48 22-48 48 0 26 22 48 48 48 26 0 48-22 48-48 0-26-22-48-48-48z m48 396l0-95-192-41 0 95z m-272-348c26 0 48-22 48-48 0-26-22-48-48-48-26 0-48 22-48 48 0 26 22 48 48 48z"/>
<glyph unicode="&#57419;" d="M176 0c44 0 80 36 80 80l0 228 149 45c6 2 11 8 11 15l0 128c0 5-2 10-6 13-5 3-10 4-15 2l-160-48c-6-2-11-8-11-15l0-304c-13 10-30 16-48 16-44 0-80-36-80-80 0-44 36-80 80-80z m80 436l128 38 0-94-128-38z m-80-308c26 0 48-22 48-48 0-26-22-48-48-48-26 0-48 22-48 48 0 26 22 48 48 48z"/>
<glyph unicode="&#57420;" d="M504 334c-5 3-11 3-16 0l-112-66 0 52c0 9-7 16-16 16l-41 0c16 17 25 39 25 64 0 53-43 96-96 96-45 0-84-32-93-74-10 6-22 10-35 10-35 0-64-29-64-64 0-12 3-23 9-32l-49 0c-9 0-16-7-16-16l0-192c0-7 5-14 12-16l344-80c2 0 3 0 4 0 4 0 7 1 10 3 4 4 6 8 6 13l0 52 112-66c5-3 11-3 16 0 5 3 8 8 8 14l0 272c0 6-3 11-8 14z m-256 130c35 0 64-29 64-64 0-35-29-64-64-64-35 0-64 29-64 64 0 35 29 64 64 64z m-71-128l-2 0c1 0 1 1 1 1 0 0 0-1 1-1z m-89 32c0 18 14 32 32 32 18 0 32-14 32-32 0-18-14-32-32-32-18 0-32 14-32 32z m392-292l-112 66c-5 3-11 3-16 0-5-3-8-8-8-14l0-60-312 73 0 163 312 0 0-64c0-6 3-11 8-14 5-3 11-3 16 0l112 66z"/>
<glyph unicode="&#57421;" d="M425 59l18-36c4-9 12-15 21-15 9 0 17 6 21 15l18 36c5 10 9 26 9 37l0 368c0 18-14 32-32 32l-32 0c-18 0-32-14-32-32l-16 0c-18 0-32-14-32-32l0-64c0-9 7-16 16-16 9 0 16 7 16 16l0 64 16 0 0-336c0-11 4-27 9-37z m23 405l32 0 0-368c0-6-3-18-5-23l-11-21-11 21c-2 5-5 17-5 23z m-416-448l288 0c18 0 32 14 32 32l0 320c0 13-7 29-16 39l-73 73c-10 9-26 16-39 16l-192 0c-18 0-32-14-32-32l0-416c0-18 14-32 32-32z m265 384l-41 0 0 41z m-265 64l192 0 0-64c0-18 14-32 32-32l64 0 0-320-288 0z m48-80l88 0c9 0 16 7 16 16 0 9-7 16-16 16l-88 0c-9 0-16-7-16-16 0-9 7-16 16-16z m192-48l-192 0c-9 0-16-7-16-16 0-9 7-16 16-16l192 0c9 0 16 7 16 16 0 9-7 16-16 16z m0-64l-192 0c-9 0-16-7-16-16 0-9 7-16 16-16l192 0c9 0 16 7 16 16 0 9-7 16-16 16z m0-64l-192 0c-9 0-16-7-16-16 0-9 7-16 16-16l192 0c9 0 16 7 16 16 0 9-7 16-16 16z m0-64l-192 0c-9 0-16-7-16-16 0-9 7-16 16-16l192 0c9 0 16 7 16 16 0 9-7 16-16 16z"/>
<glyph unicode="&#57422;" d="M0 48c0-18 14-32 32-32l288 0c18 0 32 14 32 32l0 320c0 13-7 29-16 39l-73 73c-10 9-26 16-39 16l-192 0c-18 0-32-14-32-32z m297 352l-41 0 0 41z m-265 64l192 0 0-64c0-18 14-32 32-32l64 0 0-320-288 0z m448 32l-32 0c-18 0-32-14-32-32l0-368c0-11 4-27 9-37l18-36c4-9 12-15 21-15 9 0 17 6 21 15l18 36c5 10 9 26 9 37l0 368c0 18-14 32-32 32z m0-32l0-48-32 0 0 48z m-5-391l-11-21-11 21c-2 5-5 17-5 23l0 288 32 0 0-288c0-6-3-18-5-23z m-395 311l88 0c9 0 16 7 16 16 0 9-7 16-16 16l-88 0c-9 0-16-7-16-16 0-9 7-16 16-16z m192-48l-192 0c-9 0-16-7-16-16 0-9 7-16 16-16l192 0c9 0 16 7 16 16 0 9-7 16-16 16z m0-64l-192 0c-9 0-16-7-16-16 0-9 7-16 16-16l192 0c9 0 16 7 16 16 0 9-7 16-16 16z m0-64l-192 0c-9 0-16-7-16-16 0-9 7-16 16-16l192 0c9 0 16 7 16 16 0 9-7 16-16 16z m0-64l-192 0c-9 0-16-7-16-16 0-9 7-16 16-16l192 0c9 0 16 7 16 16 0 9-7 16-16 16z"/>
<glyph unicode="&#57423;" d="M280 0c18 0 32 14 32 32l0 448c0 18-14 32-32 32l-96 0c-18 0-32-14-32-32l0-448c0-18 14-32 32-32z m-96 480l96 0 0-48-48 0c-9 0-16-7-16-16 0-9 7-16 16-16l48 0 0-48-8 0c-9 0-16-7-16-16 0-9 7-16 16-16l8 0 0-48-48 0c-9 0-16-7-16-16 0-9 7-16 16-16l48 0 0-48-8 0c-9 0-16-7-16-16 0-9 7-16 16-16l8 0 0-48-48 0c-9 0-16-7-16-16 0-9 7-16 16-16l48 0 0-48-96 0z m-112-472c9 0 17 6 21 15l18 36c5 10 9 26 9 37l0 368c0 18-14 32-32 32l-32 0c-18 0-32-14-32-32l0-368c0-11 4-27 9-37l18-36c4-9 12-15 21-15z m11 65l-11-21-11 21c-2 5-5 17-5 23l0 288 32 0 0-288c0-6-3-18-5-23z m5 391l0-48-32 0 0 48z m343-11l-18 36c-4 9-12 15-21 15-9 0-17-6-21-15l-18-36c-5-10-9-26-9-37l0-368c0-18 14-32 32-32l32 0c18 0 32 14 32 32l16 0c18 0 32 14 32 32l0 64c0 9-7 16-16 16-9 0-16-7-16-16l0-64-16 0 0 336c0 11-4 27-9 37z m-23-405l-32 0 0 368c0 6 3 18 5 23l11 21 11-21c2-5 5-17 5-23z"/>
<glyph unicode="&#57424;" d="M416 0c18 0 32 14 32 32l0 448c0 18-14 32-32 32l-208 0c-13 0-29-7-39-16l-89-89c-9-10-16-26-16-39l0-336c0-18 14-32 32-32z m0 480l0-448-320 0 0 336 80 0c18 0 32 14 32 32l0 80z m-240-23l0-57-57 0z m80-73l96 0c9 0 16 7 16 16 0 9-7 16-16 16l-96 0c-9 0-16-7-16-16 0-9 7-16 16-16z m96-48l-192 0c-9 0-16-7-16-16 0-9 7-16 16-16l192 0c9 0 16 7 16 16 0 9-7 16-16 16z m0-80l-192 0c-9 0-16-7-16-16 0-9 7-16 16-16l192 0c9 0 16 7 16 16 0 9-7 16-16 16z m0-80l-192 0c-9 0-16-7-16-16 0-9 7-16 16-16l192 0c9 0 16 7 16 16 0 9-7 16-16 16z m0-80l-192 0c-9 0-16-7-16-16 0-9 7-16 16-16l192 0c9 0 16 7 16 16 0 9-7 16-16 16z"/>
<glyph unicode="&#57425;" d="M25 5c4 0 8 1 12 3l115 51c10 4 23 13 31 21l313 313c6 6 9 14 9 23 0 9-3 17-9 23l-57 57c-6 6-14 9-23 9-9 0-17-3-23-9l-321-321c-8-8-17-22-21-32l-44-106c-4-12-1-19 1-23 4-6 10-9 17-9z m135 98l-57 57 265 265 57-57z m256 370l57-57-25-25-57 57z m-335-342c0 1 1 3 2 4l49-50-86-38z"/>
<glyph unicode="&#57426;" d="M21 504c-10 0-21-7-21-24l0-448c0-18 14-32 32-32l448 0c16 0 21 9 23 13 1 4 4 15-7 26l-457 457c-7 7-14 8-18 8z m11-472l0 32 32 0c9 0 16 7 16 16 0 9-7 16-16 16l-32 0 0 32 16 0c9 0 16 7 16 16 0 9-7 16-16 16l-16 0 0 32 32 0c9 0 16 7 16 16 0 9-7 16-16 16l-32 0 0 32 16 0c9 0 16 7 16 16 0 9-7 16-16 16l-16 0 0 32 32 0c9 0 16 7 16 16 0 9-7 16-16 16l-32 0 0 104 425-424z m96 32l192 0c16 0 21 9 23 13 1 4 4 15-7 26l-201 201c-7 7-14 8-18 8-10 0-21-7-21-24l0-192c0-18 14-32 32-32z m0 201l169-169-169 0z m316-124l33-9c2 0 5-1 7-1 8 0 15 4 19 10 5 6 7 14 5 22l-9 33c-2 12-11 26-19 35l-265 265c-6 6-14 9-23 9-9 0-17-3-23-9l-25-25c-12-13-12-33 0-46l265-265c9-8 23-17 35-19z m24 48l6-23-23 6c-5 1-15 6-19 11l-217 217 25 25 217-217c5-4 10-14 11-19z m-276 284l25-25-25-25-25 25z"/>
<glyph unicode="&#57427;" d="M256 512c-68 0-133-27-181-75-48-48-75-113-75-181 0-68 27-133 75-181 48-48 113-75 181-75 68 0 133 27 181 75 48 48 75 113 75 181 0 68-27 133-75 181-48 48-113 75-181 75z m158-414c-42-43-98-66-158-66-60 0-116 23-158 66-43 42-66 98-66 158 0 60 23 116 66 158 42 43 98 66 158 66 60 0 116-23 158-66 43-42 66-98 66-158 0-60-23-116-66-158z m-14 174l-128 0 0 128c0 9-7 16-16 16-9 0-16-7-16-16l0-128-128 0c-9 0-16-7-16-16 0-9 7-16 16-16l128 0 0-128c0-9 7-16 16-16 9 0 16 7 16 16l0 128 128 0c9 0 16 7 16 16 0 9-7 16-16 16z"/>
<glyph unicode="&#57428;" d="M16 80l480 0c9 0 16 7 16 16l0 48c0 9-7 16-16 16l-32 0 0 256c0 9-7 16-16 16l-384 0c-9 0-16-7-16-16l0-256-32 0c-9 0-16-7-16-16l0-48c0-9 7-16 16-16z m64 320l352 0 0-240-352 0z m-48-272l448 0 0-16-448 0z m213 251c-3-3-5-7-5-11 0-4 2-8 5-11 3-3 7-5 11-5 4 0 8 2 11 5 3 3 5 7 5 11 0 4-2 8-5 11-6 6-16 6-22 0z"/>
<glyph unicode="&#57429;" d="M197 5c3-3 7-5 11-5 4 0 8 2 11 5l288 288c3 3 5 7 5 11l0 192c0 9-7 16-16 16l-192 0c-4 0-8-2-11-5l-288-288c-7-6-7-16 0-22z m114 475l169 0 0-169-272-272-169 169z m65-168c35 0 64 29 64 64 0 35-29 64-64 64-35 0-64-29-64-64 0-35 29-64 64-64z m0 96c18 0 32-14 32-32 0-18-14-32-32-32-18 0-32 14-32 32 0 18 14 32 32 32z"/>
<glyph unicode="&#57430;" d="M16 80l96 0 0-64c0-9 7-16 16-16l256 0c9 0 16 7 16 16l0 64 96 0c9 0 16 7 16 16l0 256c0 9-7 16-16 16l-96 0 0 128c0 9-7 16-16 16l-256 0c-9 0-16-7-16-16l0-128-96 0c-9 0-16-7-16-16l0-256c0-9 7-16 16-16z m352-48l-224 0 0 160 224 0z m-224 448l224 0 0-112-224 0z m-112-144l448 0 0-224-80 0 0 96c0 9-7 16-16 16l-256 0c-9 0-16-7-16-16l0-96-80 0z m59-29c-6 6-16 6-22 0-3-3-5-7-5-11 0-4 2-8 5-11 3-3 7-5 11-5 4 0 8 2 11 5 3 3 5 7 5 11 0 4-2 8-5 11z m37-27c4 0 8 2 11 5 3 3 5 7 5 11 0 4-2 8-5 11-6 6-16 6-22 0-3-3-5-7-5-11 0-4 2-8 5-11 3-3 7-5 11-5z m208-120l-160 0c-9 0-16-7-16-16 0-9 7-16 16-16l160 0c9 0 16 7 16 16 0 9-7 16-16 16z m0-64l-160 0c-9 0-16-7-16-16 0-9 7-16 16-16l160 0c9 0 16 7 16 16 0 9-7 16-16 16z"/>
<glyph unicode="&#57431;" d="M256 176c66 0 120 68 120 152 0 84-54 152-120 152-66 0-120-68-120-152 0-84 54-152 120-152z m0 272c48 0 88-55 88-120 0-65-40-120-88-120-48 0-88 55-88 120 0 65 40 120 88 120z m-223-299l-32-96c-2-5-1-10 2-14 3-5 8-7 13-7l480 0c5 0 10 2 13 7 3 4 4 9 2 14l-32 96c-1 5-6 9-11 10l-112 32c-3 1-8 1-11-1l-89-44-89 44c-3 2-8 2-11 1l-112-32c-5-1-10-5-11-10z m125 10l91-45c4-3 10-3 14 0l91 45 97-28 23-67-436 0 23 67z"/>
<glyph unicode="&#57432;" d="M256 176c69 0 128 70 128 152 0 82-59 152-128 152-69 0-128-70-128-152 0-82 59-152 128-152z m0 272c52 0 96-55 96-120 0-65-44-120-96-120-52 0-96 55-96 120 0 65 44 120 96 120z m-223-299l-32-96c-2-5-1-10 2-14 3-5 8-7 13-7l480 0c5 0 10 2 13 7 3 4 4 9 2 14l-32 96c-1 5-6 9-11 10l-112 32c-3 1-8 1-11-1l-89-44-89 44c-3 2-8 2-11 1l-112-32c-5-1-10-5-11-10z m125 10l91-45c4-3 10-3 14 0l91 45 97-28 23-67-436 0 23 67z m338 305l-32 0 0 32c0 9-7 16-16 16-9 0-16-7-16-16l0-32-32 0c-9 0-16-7-16-16 0-9 7-16 16-16l32 0 0-32c0-9 7-16 16-16 9 0 16 7 16 16l0 32 32 0c9 0 16 7 16 16 0 9-7 16-16 16z"/>
<glyph unicode="&#57433;" d="M256 176c69 0 128 70 128 152 0 82-59 152-128 152-69 0-128-70-128-152 0-82 59-152 128-152z m0 272c52 0 96-55 96-120 0-65-44-120-96-120-52 0-96 55-96 120 0 65 44 120 96 120z m-223-299l-32-96c-2-5-1-10 2-14 3-5 8-7 13-7l480 0c5 0 10 2 13 7 3 4 4 9 2 14l-32 96c-1 5-6 9-11 10l-112 32c-3 1-8 1-11-1l-89-44-89 44c-3 2-8 2-11 1l-112-32c-5-1-10-5-11-10z m125 10l91-45c4-3 10-3 14 0l91 45 97-28 23-67-436 0 23 67z m231 230c3-3 7-5 11-5 4 0 8 2 11 5l29 28 29-28c3-3 7-5 11-5 4 0 8 2 11 5 7 6 7 16 0 22l-28 29 28 29c7 6 7 16 0 22-6 7-16 7-22 0l-29-28-29 28c-6 7-16 7-22 0-7-6-7-16 0-22l28-29-28-29c-7-6-7-16 0-22z"/>
<glyph unicode="&#57434;" d="M187 155c-6 7-16 7-22 0l-48-48c-7-6-7-16 0-22 3-3 7-5 11-5 4 0 8 2 11 5l48 48c7 6 7 16 0 22z m186 0l-64-64c-7-6-7-16 0-22 3-3 7-5 11-5 4 0 8 2 11 5l64 64c7 6 7 16 0 22-6 7-16 7-22 0z m-104 0l-112-112c-7-6-7-16 0-22 3-3 7-5 11-5 4 0 8 2 11 5l112 112c7 6 7 16 0 22-6 7-16 7-22 0z m178 180c-7 90-83 161-175 161-82 0-152-53-173-128l-3 0c-53 0-96-43-96-96 0-53 43-96 96-96l336 0c44 0 80 36 80 80 0 39-28 71-65 79z m-15-127l-336 0c-35 0-64 29-64 64 0 35 29 64 64 64l16 0c8 0 14 5 16 13 12 67 73 115 144 115 79 0 144-65 144-144 0-9 7-16 16-16 26 0 48-22 48-48 0-26-22-48-48-48z"/>
<glyph unicode="&#57435;" d="M240 496c0-9 7-16 16-16 60 0 116-23 158-66 43-42 66-98 66-158 0-59-23-115-64-157l0 45c0 9-7 16-16 16-9 0-16-7-16-16l0-96 96 0c9 0 16 7 16 16 0 9-7 16-16 16l-38 0c45 48 70 110 70 176 0 68-27 133-75 181-48 48-113 75-181 75-9 0-16-7-16-16z m-165-421c48-48 113-75 181-75 9 0 16 7 16 16 0 9-7 16-16 16-60 0-116 23-158 66-43 42-66 98-66 158 0 59 23 115 64 157l0-45c0-9 7-16 16-16 9 0 16 7 16 16l0 96-96 0c-9 0-16-7-16-16 0-9 7-16 16-16l38 0c-45-48-70-110-70-176 0-68 27-133 75-181z"/>
<glyph unicode="&#57436;" d="M363 235c-6 7-16 7-22 0l-13-12-25 25 56 56 25 0c63 0 96 39 96 112 0 6-3 11-8 14-4 3-10 3-15 0l-54-27-16 16 27 54c3 5 3 11 0 15-3 5-8 8-14 8-73 0-112-33-112-96l0-25-56-56-89 89 12 13c4 3 5 8 5 13-1 5-4 9-8 12l-80 48c-6 4-14 3-19-3l-16-16c-6-5-6-13-3-19l48-80c3-4 7-7 12-8 1 0 1 0 2 0 4 0 8 2 11 5l13 12 89-89-188-189c-2-1-3-4-4-6l-16-48c-2-6-1-12 4-16l16-16c3-3 7-5 11-5 2 0 3 0 5 1l48 16c2 1 5 2 6 4l189 188 25-25-12-13c-7-6-7-16 0-22l144-144c3-3 7-5 11-5 4 0 8 2 11 5l48 48c7 6 7 16 0 22z m-264 175l-28 47 47-28z m-28-348l-35-12-2 2 12 35 269 270c3 3 5 7 5 11l0 32c0 27 7 55 53 62l-19-39c-3-6-2-13 3-18l32-32c5-5 12-6 18-3l39 19c-7-46-35-53-62-53l-32 0c-4 0-8-2-11-5z m377-7l-121 121 25 25 121-121z"/>
<glyph unicode="&#57437;" d="M16 192l52 0 10-28-41-41c-7-6-7-16 0-22l64-64c6-7 16-7 22 0l41 41 28-10 0-52c0-9 7-16 16-16l96 0c9 0 16 7 16 16l0 52 28 10 41-41c6-7 16-7 22 0l64 64c7 6 7 16 0 22l-41 41 10 28 52 0c9 0 16 7 16 16l0 96c0 9-7 16-16 16l-52 0-10 28 41 41c7 6 7 16 0 22l-64 64c-6 7-16 7-22 0l-41-41-28 10 0 52c0 9-7 16-16 16l-96 0c-9 0-16-7-16-16l0-52-28-10-41 41c-6 7-16 7-22 0l-64-64c-7-6-7-16 0-22l41-41-10-28-52 0c-9 0-16-7-16-16l0-96c0-9 7-16 16-16z m16 96l48 0c7 0 13 4 15 11l16 48c2 6 1 12-4 16l-36 37 41 41 37-36c4-5 10-6 16-4l48 16c7 2 11 8 11 15l0 48 64 0 0-48c0-7 4-13 11-15l48-16c6-2 12-1 16 4l37 36 41-41-36-37c-5-4-6-10-4-16l16-48c2-7 8-11 15-11l48 0 0-64-48 0c-7 0-13-4-15-11l-16-48c-2-6-1-12 4-16l36-37-41-41-37 36c-4 5-10 6-16 4l-48-16c-7-2-11-8-11-15l0-48-64 0 0 48c0 7-4 13-11 15l-48 16c-6 2-12 1-16-4l-37-36-41 41 36 37c5 4 6 10 4 16l-16 48c-2 7-8 11-15 11l-48 0z m224-96c35 0 64 29 64 64 0 35-29 64-64 64-35 0-64-29-64-64 0-35 29-64 64-64z m0 96c18 0 32-14 32-32 0-18-14-32-32-32-18 0-32 14-32 32 0 18 14 32 32 32z"/>
<glyph unicode="&#57438;" d="M96 80c31 0 58 15 76 38l133-49c6-39 39-69 79-69 44 0 80 36 80 80 0 44-36 80-80 80-37 0-67-25-77-58l-120 44c3 9 5 20 5 30 0 20-6 39-17 54l148 89c20-19 47-31 77-31 62 0 112 50 112 112 0 62-50 112-112 112-62 0-112-50-112-112 0-20 5-39 15-56l-151-90c-16 11-35 18-56 18-53 0-96-43-96-96 0-53 43-96 96-96z m288 48c26 0 48-22 48-48 0-26-22-48-48-48-26 0-48 22-48 48 0 26 22 48 48 48z m16 352c44 0 80-36 80-80 0-44-36-80-80-80-44 0-80 36-80 80 0 44 36 80 80 80z m-304-240c35 0 64-29 64-64 0-35-29-64-64-64-35 0-64 29-64 64 0 35 29 64 64 64z"/>
<glyph unicode="&#57439;" d="M248 0c4 0 8 2 11 5l136 136c3 3 5 7 5 11l0 344c0 9-7 16-16 16l-272 0c-9 0-16-7-16-16l0-344c0-4 2-8 5-11l136-136c3-3 7-5 11-5z m-120 480l240 0 0-321-120-120-120 120z"/>
<glyph unicode="&#57440;" d="M141 109c3-3 7-5 11-5l344 0c9 0 16 7 16 16l0 272c0 9-7 16-16 16l-344 0c-4 0-8-2-11-5l-136-136c-7-6-7-16 0-22z m18 267l321 0 0-240-321 0-120 120z"/>
<glyph unicode="&#57441;" d="M16 104l344 0c4 0 8 2 11 5l136 136c7 6 7 16 0 22l-136 136c-3 3-7 5-11 5l-344 0c-9 0-16-7-16-16l0-272c0-9 7-16 16-16z m16 272l321 0 120-120-120-120-321 0z"/>
<glyph unicode="&#57442;" d="M384 0c9 0 16 7 16 16l0 344c0 4-2 8-5 11l-136 136c-6 7-16 7-22 0l-136-136c-3-3-5-7-5-11l0-344c0-9 7-16 16-16z m-256 353l120 120 120-120 0-321-240 0z"/>
<glyph unicode="&#57443;" d="M0 432c0-9 7-16 16-16l49 0 31-353c0-35 29-63 64-63 30 0 55 20 62 48l68 0c7-28 32-48 62-48 35 0 64 29 64 64 0 35-29 64-64 64-30 0-55-20-62-48l-68 0c-7 28-32 48-62 48-14 0-26-4-37-12l-4 52c0 0 1 0 1 0 0 0 1 0 1 0l328 16c7 0 13 5 14 12l48 168c2 4 1 10-2 14-3 4-8 6-13 6l-396 0-4 49c-1 9-8 15-16 15l-64 0c-9 0-16-7-16-16z m352-336c18 0 32-14 32-32 0-18-14-32-32-32-18 0-32 14-32 32 0 18 14 32 32 32z m-192 0c18 0 32-14 32-32 0-18-14-32-32-32-18 0-32 14-32 32 0 18 14 32 32 32z m315 256l-39-137-317-15c-1 0-2 0-3 0l-13 152z"/>
<glyph unicode="&#57444;" d="M0 432c0-9 7-16 16-16l49 0 31-353c0-35 29-63 64-63 30 0 55 20 62 48l68 0c7-28 32-48 62-48 35 0 64 29 64 64 0 35-29 64-64 64-30 0-55-20-62-48l-68 0c-7 28-32 48-62 48-14 0-26-4-37-12l-4 52c0 0 1 0 1 0 0 0 1 0 1 0l328 16c7 0 13 5 14 12l48 168c2 4 1 10-2 14-3 4-8 6-13 6l-52 0-29 100c-2 7-8 12-15 12l-112 0c-4 0-8-2-11-5l-44-43-73 0c-7 0-14-5-16-12l-12-52-32 0-4 49c-1 9-8 15-16 15l-64 0c-9 0-16-7-16-16z m352-336c18 0 32-14 32-32 0-18-14-32-32-32-18 0-32 14-32 32 0 18 14 32 32 32z m-192 0c18 0 32-14 32-32 0-18-14-32-32-32-18 0-32 14-32 32 0 18 14 32 32 32z m135 368l93 0 23-80-143 0-10 43z m-123-48l56 0 8-32-72 0z m260-64l43 0-39-137-317-15c-1 0-2 0-3 0l-13 152z"/>
<glyph unicode="&#57445;" d="M496 512l-480 0c-9 0-16-7-16-16l0-480c0-9 7-16 16-16l480 0c9 0 16 7 16 16l0 480c0 9-7 16-16 16z m-16-480l-448 0 0 448 448 0z m-400 352l32 0 0-304c0-9 7-16 16-16 9 0 16 7 16 16l0 304 32 0c9 0 16 7 16 16 0 9-7 16-16 16l-32 0 0 16c0 9-7 16-16 16-9 0-16-7-16-16l0-16-32 0c-9 0-16-7-16-16 0-9 7-16 16-16z m256-288l32 0 0-16c0-9 7-16 16-16 9 0 16 7 16 16l0 16 32 0c9 0 16 7 16 16 0 9-7 16-16 16l-32 0 0 304c0 9-7 16-16 16-9 0-16-7-16-16l0-304-32 0c-9 0-16-7-16-16 0-9 7-16 16-16z m-128 144l32 0 0-160c0-9 7-16 16-16 9 0 16 7 16 16l0 160 32 0c9 0 16 7 16 16 0 9-7 16-16 16l-32 0 0 160c0 9-7 16-16 16-9 0-16-7-16-16l0-160-32 0c-9 0-16-7-16-16 0-9 7-16 16-16z"/>
<glyph unicode="&#57446;" d="M384 512l-256 0c-9 0-16-7-16-16l0-480c0-9 7-16 16-16l256 0c9 0 16 7 16 16l0 480c0 9-7 16-16 16z m-16-480l-224 0 0 448 224 0z m-104 64l-16 0c-9 0-16-7-16-16 0-9 7-16 16-16l16 0c9 0 16 7 16 16 0 9-7 16-16 16z m-64 320l112 0c9 0 16 7 16 16 0 9-7 16-16 16l-112 0c-9 0-16-7-16-16 0-9 7-16 16-16z"/>
<glyph unicode="&#57447;" d="M494 480l-238-32-238 32c-4 0-9-1-13-4-3-3-5-7-5-12l0-384c0-8 6-15 14-16l240-32c1 0 1 0 2 0 1 0 1 0 2 0l240 32c8 1 14 8 14 16l0 384c0 5-2 9-5 12-4 3-9 4-13 4z m-462-34l208-28 0-352-208 28z m448-352l-208-28 0 352 208 28z m-402 274l128-16c1 0 1 0 2 0 8 0 15 6 16 14 1 9-5 17-14 18l-128 16c-9 1-17-5-18-14-1-9 5-17 14-18z m132-64l-128 16c-9 1-17-5-18-14-1-9 5-17 14-18l128-16c1 0 1 0 2 0 8 0 15 6 16 14 1 9-5 17-14 18z m0-80l-128 16c-9 1-17-5-18-14-1-9 5-17 14-18l128-16c1 0 1 0 2 0 8 0 15 6 16 14 1 9-5 17-14 18z m0-80l-128 16c-9 1-17-5-18-14-1-9 5-17 14-18l128-16c1 0 1 0 2 0 8 0 15 6 16 14 1 9-5 17-14 18z m94 208c1 0 1 0 2 0l128 16c9 1 15 9 14 18-1 9-9 15-18 14l-128-16c-9-1-15-9-14-18 1-8 8-14 16-14z m0-80c1 0 1 0 2 0l128 16c9 1 15 9 14 18-1 9-9 15-18 14l-128-16c-9-1-15-9-14-18 1-8 8-14 16-14z m0-80c1 0 1 0 2 0l128 16c9 1 15 9 14 18-1 9-9 15-18 14l-128-16c-9-1-15-9-14-18 1-8 8-14 16-14z m126-32l-128-16c-9-1-15-9-14-18 1-8 8-14 16-14 1 0 1 0 2 0l128 16c9 1 15 9 14 18-1 9-9 15-18 14z"/>
<glyph unicode="&#57448;" d="M16 288l192 0c9 0 16 7 16 16l0 192c0 9-7 16-16 16l-192 0c-9 0-16-7-16-16l0-192c0-9 7-16 16-16z m16 192l160 0 0-160-160 0z m480 16c0 9-7 16-16 16l-192 0c-9 0-16-7-16-16l0-192c0-9 7-16 16-16l192 0c9 0 16 7 16 16z m-32-176l-160 0 0 160 160 0z m-464-320l200 0c9 0 16 7 16 16l0 200c0 9-7 16-16 16l-200 0c-9 0-16-7-16-16l0-200c0-9 7-16 16-16z m16 200l168 0 0-168-168 0z m464 24l-192 0c-9 0-16-7-16-16l0-192c0-9 7-16 16-16l192 0c9 0 16 7 16 16l0 192c0 9-7 16-16 16z m-16-192l-160 0 0 160 160 0z"/>
<glyph unicode="&#57449;" d="M331 125c7 6 7 16 0 22-6 7-16 7-22 0l-46-45 48-32-18-19c-7-6-7-16 0-22 3-3 7-5 11-5 4 0 8 2 11 5l46 45-48 32z m-128 0c7 6 7 16 0 22-6 7-16 7-22 0l-46-45 48-32-18-19c-7-6-7-16 0-22 3-3 7-5 11-5 4 0 8 2 11 5l46 45-48 32z m244 202c-7 90-83 161-175 161-82 0-152-53-173-128l-3 0c-53 0-96-43-96-96 0-53 43-96 96-96l336 0c44 0 80 36 80 80 0 39-28 71-65 79z m-15-127l-336 0c-35 0-64 29-64 64 0 35 29 64 64 64l16 0c8 0 14 5 16 13 12 67 73 115 144 115 79 0 144-65 144-144 0-9 7-16 16-16 26 0 48-22 48-48 0-26-22-48-48-48z"/>
<glyph unicode="&#57450;" d="M256 400c-79 0-144-65-144-144 0-79 65-144 144-144 79 0 144 65 144 144 0 79-65 144-144 144z m0-256c-62 0-112 50-112 112 0 62 50 112 112 112 62 0 112-50 112-112 0-62-50-112-112-112z m-16 352l0-64c0-9 7-16 16-16 9 0 16 7 16 16l0 64c0 9-7 16-16 16-9 0-16-7-16-16z m16-400c-9 0-16-7-16-16l0-64c0-9 7-16 16-16 9 0 16 7 16 16l0 64c0 9-7 16-16 16z m240 176l-64 0c-9 0-16-7-16-16 0-9 7-16 16-16l64 0c9 0 16 7 16 16 0 9-7 16-16 16z m-400-16c0 9-7 16-16 16l-64 0c-9 0-16-7-16-16 0-9 7-16 16-16l64 0c9 0 16 7 16 16z m309 171l-32-32c-7-6-7-16 0-22 3-3 7-5 11-5 4 0 8 2 11 5l32 32c7 6 7 16 0 22-6 7-16 7-22 0z m-288-288l-32-32c-7-6-7-16 0-22 3-3 7-5 11-5 4 0 8 2 11 5l32 32c7 6 7 16 0 22-6 7-16 7-22 0z m278 0c-6 7-16 7-22 0-7-6-7-16 0-22l32-32c3-3 7-5 11-5 4 0 8 2 11 5 7 6 7 16 0 22z m-310 288c-7-6-7-16 0-22l32-32c3-3 7-5 11-5 4 0 8 2 11 5 7 6 7 16 0 22l-32 32c-6 7-16 7-22 0z"/>
<glyph unicode="&#57451;" d="M448 16l0 480c0 9-7 16-16 16l-352 0c-9 0-16-7-16-16l0-480c0-9 7-16 16-16l352 0c9 0 16 7 16 16z m-32 16l-320 0 0 448 320 0z m-171 59c-3-3-5-7-5-11 0-4 2-8 5-11 3-3 7-5 11-5 4 0 8 2 11 5 3 3 5 7 5 11 0 4-2 8-5 11-6 6-16 6-22 0z m-29 325l80 0c9 0 16 7 16 16 0 9-7 16-16 16l-80 0c-9 0-16-7-16-16 0-9 7-16 16-16z"/>
<glyph unicode="&#57452;" d="M496 208l-480 0c-9 0-16-7-16-16 0-9 7-16 16-16l480 0c9 0 16 7 16 16 0 9-7 16-16 16z m0 64l-480 0c-9 0-16-7-16-16 0-9 7-16 16-16l480 0c9 0 16 7 16 16 0 9-7 16-16 16z m0 64l-480 0c-9 0-16-7-16-16 0-9 7-16 16-16l480 0c9 0 16 7 16 16 0 9-7 16-16 16z"/>
<glyph unicode="&#57453;" d="M192 0c9 0 16 7 16 16l0 480c0 9-7 16-16 16-9 0-16-7-16-16l0-480c0-9 7-16 16-16z m64 0c9 0 16 7 16 16l0 480c0 9-7 16-16 16-9 0-16-7-16-16l0-480c0-9 7-16 16-16z m64 0c9 0 16 7 16 16l0 480c0 9-7 16-16 16-9 0-16-7-16-16l0-480c0-9 7-16 16-16z"/>
<glyph unicode="&#57454;" d="M5 181l42-43c7-6 17-6 23 0 9 9 21 14 34 14 26 0 48-22 48-48 0-13-5-25-14-34-3-3-5-7-5-11 0-4 2-9 5-12l43-42c3-3 7-5 11-5 4 0 8 2 11 5l304 304c3 3 5 7 5 11 0 4-2 8-5 11l-42 43c-7 6-17 6-23 0-9-9-21-14-34-14-26 0-48 22-48 48 0 13 5 25 14 34 3 3 5 7 5 11 0 4-2 9-5 12l-43 42c-6 7-16 7-22 0l-304-304c-3-3-5-7-5-11 0-4 2-8 5-11z m203 180l13-12c3-3 7-5 11-5 4 0 8 2 11 5 7 6 7 16 0 22l-12 13 89 89 21-21c-8-13-13-28-13-44 0-44 36-80 80-80 16 0 31 5 44 13l21-21-89-89-13 12c-6 7-16 7-22 0-7-6-7-16 0-22l12-13-169-169-21 21c8 13 13 28 13 44 0 44-36 80-80 80-16 0-31-5-44-13l-21 21z m61-60c3-3 7-5 11-5 4 0 8 2 11 5 7 6 7 16 0 22l-16 16c-6 7-16 7-22 0-7-6-7-16 0-22z m32-32l16-16c3-3 7-5 11-5 4 0 8 2 11 5 7 6 7 16 0 22l-16 16c-6 7-16 7-22 0-7-6-7-16 0-22z"/>
<glyph unicode="&#57455;" d="M354 464l-20 39c-2 6-8 9-14 9l-128 0c-6 0-12-3-14-9l-20-39-78 0c-9 0-16-7-16-16l0-432c0-9 7-16 16-16l352 0c9 0 16 7 16 16l0 432c0 9-7 16-16 16z m-152 16l108 0 32-64-172 0z m214-448l-320 0 0 400 46 0-12-25c-3-5-3-11 0-15 3-5 8-8 14-8l224 0c9 0 16 7 16 16 0 3-1 6-3 9l-11 23 46 0z m-48 304l-144 0c-9 0-16-7-16-16 0-9 7-16 16-16l144 0c9 0 16 7 16 16 0 9-7 16-16 16z m0-80l-144 0c-9 0-16-7-16-16 0-9 7-16 16-16l144 0c9 0 16 7 16 16 0 9-7 16-16 16z m0-80l-144 0c-9 0-16-7-16-16 0-9 7-16 16-16l144 0c9 0 16 7 16 16 0 9-7 16-16 16z m0-80l-144 0c-9 0-16-7-16-16 0-9 7-16 16-16l144 0c9 0 16 7 16 16 0 9-7 16-16 16z m-208 240l-16 0c-9 0-16-7-16-16 0-9 7-16 16-16l16 0c9 0 16 7 16 16 0 9-7 16-16 16z m0-80l-16 0c-9 0-16-7-16-16 0-9 7-16 16-16l16 0c9 0 16 7 16 16 0 9-7 16-16 16z m0-80l-16 0c-9 0-16-7-16-16 0-9 7-16 16-16l16 0c9 0 16 7 16 16 0 9-7 16-16 16z m0-80l-16 0c-9 0-16-7-16-16 0-9 7-16 16-16l16 0c9 0 16 7 16 16 0 9-7 16-16 16z"/>
<glyph unicode="&#57456;" d="M178 503l-20-39-78 0c-9 0-16-7-16-16l0-432c0-9 7-16 16-16l352 0c9 0 16 7 16 16l0 432c0 9-7 16-16 16l-78 0-20 39c-2 6-8 9-14 9l-128 0c-6 0-12-3-14-9z m238-71l0-400-320 0 0 400 46 0-12-25c-3-5-3-11 0-15 3-5 8-8 14-8l224 0c9 0 16 7 16 16 0 3-1 6-3 9l-11 23z m-106 48l32-64-172 0 32 64z m10-224l-48 0 0 48c0 9-7 16-16 16-9 0-16-7-16-16l0-48-48 0c-9 0-16-7-16-16 0-9 7-16 16-16l48 0 0-48c0-9 7-16 16-16 9 0 16 7 16 16l0 48 48 0c9 0 16 7 16 16 0 9-7 16-16 16z"/>
<glyph unicode="&#57457;" d="M432 0c9 0 16 7 16 16l0 432c0 9-7 16-16 16l-78 0-20 39c-2 6-8 9-14 9l-128 0c-6 0-12-3-14-9l-20-39-78 0c-9 0-16-7-16-16l0-432c0-9 7-16 16-16z m-230 480l108 0 32-64-172 0z m-106-48l46 0-12-25c-3-5-3-11 0-15 3-5 8-8 14-8l224 0c9 0 16 7 16 16 0 3-1 6-3 9l-11 23 46 0 0-400-320 0z m213-149l-69-68-37 36c-6 7-16 7-22 0-7-6-7-16 0-22l48-48c3-3 7-5 11-5 4 0 8 2 11 5l80 80c7 6 7 16 0 22-6 7-16 7-22 0z"/>
<glyph unicode="&#57458;" d="M312 512l-112 0c-9 0-16-7-16-16l0-48-104 0c-9 0-16-7-16-16 0-9 7-16 16-16l16 0 0-400c0-9 7-16 16-16l288 0c9 0 16 7 16 16l0 400 16 0c9 0 16 7 16 16 0 9-7 16-16 16l-104 0 0 48c0 9-7 16-16 16z m72-96l0-384-256 0 0 384z m-168 32l0 32 80 0 0-32z m-8-384c9 0 16 7 16 16l0 272c0 9-7 16-16 16-9 0-16-7-16-16l0-272c0-9 7-16 16-16z m96 0c9 0 16 7 16 16l0 272c0 9-7 16-16 16-9 0-16-7-16-16l0-272c0-9 7-16 16-16z"/>
<glyph unicode="&#57459;" d="M496 480l-160 0c-5 0-10-2-13-6l-43-58-48 0-43 58c-3 4-8 6-13 6l-160 0c-9 0-16-7-16-16l0-128c0-9 7-16 16-16l80 0 0-272c0-9 7-16 16-16l288 0c9 0 16 7 16 16l0 272 80 0c9 0 16 7 16 16l0 128c0 9-7 16-16 16z m-16-128l-80 0c-9 0-16-7-16-16l0-272-256 0 0 272c0 9-7 16-16 16l-80 0 0 96 136 0 43-58c3-4 8-6 13-6l64 0c5 0 10 2 13 6l43 58 136 0z"/>
<glyph unicode="&#57460;" d="M496 448l-480 0c-9 0-16-7-16-16l0-320c0-9 7-16 16-16l224 0 0-64-64 0c-9 0-16-7-16-16 0-9 7-16 16-16l160 0c9 0 16 7 16 16 0 9-7 16-16 16l-64 0 0 64 224 0c9 0 16 7 16 16l0 320c0 9-7 16-16 16z m-16-320l-448 0 0 288 448 0z"/>
<glyph unicode="&#57461;" d="M256 512c-219 0-255-203-256-205-1-5 1-10 4-13 3-4 7-6 12-6l224 0 0-240c0-26 22-48 48-48 26 0 48 22 48 48 0 9-7 16-16 16-9 0-16-7-16-16 0-9-7-16-16-16-9 0-16 7-16 16l0 240 224 0c9 0 16 7 16 16 0 2 0 4-1 5-5 25-50 203-255 203z m-220-192c14 46 64 160 220 160 156 0 206-114 220-160z"/>
<glyph unicode="&#57462;" d="M256 32c9 0 16 7 16 16l0 217 37-36c3-3 7-5 11-5 4 0 8 2 11 5 7 6 7 16 0 22l-64 64c-6 7-16 7-22 0l-64-64c-7-6-7-16 0-22 6-7 16-7 22 0l37 36 0-217c0-9 7-16 16-16z m-240 128l176 0c9 0 16 7 16 16 0 9-7 16-16 16l-160 0 0 256 448 0 0-256-160 0c-9 0-16-7-16-16 0-9 7-16 16-16l176 0c9 0 16 7 16 16l0 288c0 9-7 16-16 16l-480 0c-9 0-16-7-16-16l0-288c0-9 7-16 16-16z"/>
<glyph unicode="&#57463;" d="M16 128l176 0c9 0 16 7 16 16 0 9-7 16-16 16l-160 0 0 320 137 0 60-59c3-3 7-5 11-5l240 0 0-256-160 0c-9 0-16-7-16-16 0-9 7-16 16-16l176 0c9 0 16 7 16 16l0 288c0 9-7 16-16 16l-249 0-60 59c-3 3-7 5-11 5l-160 0c-9 0-16-7-16-16l0-352c0-9 7-16 16-16z m240-128c9 0 16 7 16 16l0 217 37-36c3-3 7-5 11-5 4 0 8 2 11 5 7 6 7 16 0 22l-64 64c-6 7-16 7-22 0l-64-64c-7-6-7-16 0-22 6-7 16-7 22 0l37 36 0-217c0-9 7-16 16-16z"/>
<glyph unicode="&#57464;" d="M399 239c17 14 33 33 33 65 0 55-45 104-96 104-29 0-55-12-73-34-10 1-20 2-31 2-66 0-112-34-139-105-38-3-93-24-93-87 0-40 30-80 96-80l288 0c44 0 64 20 64 64 0 38-19 64-49 71z m-63 137c37 0 64-38 64-72 0-11-3-20-10-29-15 42-47 74-91 90 11 7 24 11 37 11z m48-240l-288 0c-47 0-64 25-64 48 0 23 11 38 33 48 19 8 39 8 39 8l11 0 4 11c22 64 57 93 113 93 80 0 133-46 136-121l1-15 15 0c26 0 32-22 32-40 0-27-5-32-32-32z m112 192l-32 0c-9 0-16-7-16-16 0-9 7-16 16-16l32 0c9 0 16 7 16 16 0 9-7 16-16 16z m-144 112l0 32c0 9-7 16-16 16-9 0-16-7-16-16l0-32c0-9 7-16 16-16 9 0 16 7 16 16z m83-35l24 24c7 6 7 16 0 22-6 7-16 7-22 0l-24-24c-7-6-7-16 0-22 3-3 7-5 11-5 4 0 8 2 11 5z m-187-5c4 0 8 2 11 5 7 6 7 16 0 22l-24 24c-6 7-16 7-22 0-7-6-7-16 0-22l24-24c3-3 7-5 11-5z"/>
<glyph unicode="&#57465;" d="M504 366c-5 3-12 3-16 0l-104-65 0 51c0 9-7 16-16 16l-41 0-64 64-215 0c-9 0-16-7-16-16 0-9 7-16 16-16l201 0 32-32-265 0c-9 0-16-7-16-16l0-256c0-9 7-16 16-16l352 0c9 0 16 7 16 16l0 51 104-65c2-1 5-2 8-2 3 0 5 1 8 2 5 3 8 8 8 14l0 256c0 6-3 11-8 14z m-24-241l-104 65c-4 3-11 3-16 0-5-3-8-8-8-14l0-64-320 0 0 224 320 0 0-64c0-6 3-11 8-14 5-3 12-3 16 0l104 65z m-416 147l32 0c9 0 16 7 16 16 0 9-7 16-16 16l-32 0c-9 0-16-7-16-16 0-9 7-16 16-16z m128-32l-128 0c-9 0-16-7-16-16l0-64c0-9 7-16 16-16l128 0c9 0 16 7 16 16l0 64c0 9-7 16-16 16z m-16-64l-96 0 0 32 96 0z"/>
<glyph unicode="&#57466;" d="M24 144l89 0 140-139c3-3 7-5 11-5 2 0 4 0 6 1 6 3 10 9 10 15l0 480c0 6-4 12-10 15-6 2-13 1-17-4l-140-139-89 0c-9 0-16-7-16-16l0-192c0-9 7-16 16-16z m16 192l80 0c4 0 8 2 11 5l117 116 0-402-117 116c-3 3-7 5-11 5l-80 0z m288-144c-9 0-16-7-16-16 0-9 7-16 16-16 53 0 96 43 96 96 0 53-43 96-96 96-9 0-16-7-16-16 0-9 7-16 16-16 35 0 64-29 64-64 0-35-29-64-64-64z m0-112c97 0 176 79 176 176 0 97-79 176-176 176-9 0-16-7-16-16 0-9 7-16 16-16 79 0 144-65 144-144 0-79-65-144-144-144-9 0-16-7-16-16 0-9 7-16 16-16z"/>
<glyph unicode="&#57467;" d="M64 144l89 0 140-139c3-3 7-5 11-5 2 0 4 0 6 1 6 3 10 9 10 15l0 480c0 6-4 12-10 15-6 2-13 1-17-4l-140-139-89 0c-9 0-16-7-16-16l0-192c0-9 7-16 16-16z m16 192l80 0c4 0 8 2 11 5l117 116 0-402-117 116c-3 3-7 5-11 5l-80 0z m288-144c-9 0-16-7-16-16 0-9 7-16 16-16 53 0 96 43 96 96 0 53-43 96-96 96-9 0-16-7-16-16 0-9 7-16 16-16 35 0 64-29 64-64 0-35-29-64-64-64z"/>
<glyph unicode="&#57468;" d="M32 144l89 0 140-139c3-3 7-5 11-5 2 0 4 0 6 1 6 3 10 9 10 15l0 480c0 6-4 12-10 15-6 2-13 1-17-4l-140-139-89 0c-9 0-16-7-16-16l0-192c0-9 7-16 16-16z m16 192l80 0c4 0 8 2 11 5l117 116 0-402-117 116c-3 3-7 5-11 5l-80 0z m277-163c3-3 7-5 11-5 4 0 8 2 11 5l61 60 61-60c3-3 7-5 11-5 4 0 8 2 11 5 7 6 7 16 0 22l-60 61 60 61c7 6 7 16 0 22-6 7-16 7-22 0l-61-60-61 60c-6 7-16 7-22 0-7-6-7-16 0-22l60-61-60-61c-7-6-7-16 0-22z"/>
<glyph unicode="&#57469;" d="M160 0l192 0c9 0 16 7 16 16l0 104c39 33 64 81 64 136 0 55-25 103-64 136l0 104c0 9-7 16-16 16l-192 0c-9 0-16-7-16-16l0-104c-39-33-64-81-64-136 0-55 25-103 64-136l0-104c0-9 7-16 16-16z m176 32l-160 0 0 67c24-12 51-19 80-19 29 0 56 7 80 19z m-160 448l160 0 0-67c-24 12-51 19-80 19-29 0-56-7-80-19z m-64-224c0 79 65 144 144 144 79 0 144-65 144-144 0-79-65-144-144-144-79 0-144 65-144 144z m137-14l64-32c2-1 5-2 7-2 6 0 12 3 14 9 4 8 1 17-7 21l-55 28 0 86c0 9-7 16-16 16-9 0-16-7-16-16l0-96c0-6 3-12 9-14z"/>
<glyph unicode="&#57470;" d="M160 160c-9 0-16-7-16-16l0-48c0-9 7-16 16-16 9 0 16 7 16 16l0 48c0 9-7 16-16 16z m128 0c-9 0-16-7-16-16l0-64c0-9 7-16 16-16 9 0 16 7 16 16l0 64c0 9-7 16-16 16z m-64 0c-9 0-16-7-16-16l0-112c0-9 7-16 16-16 9 0 16 7 16 16l0 112c0 9-7 16-16 16z m128 0c-9 0-16-7-16-16l0-112c0-9 7-16 16-16 9 0 16 7 16 16l0 112c0 9-7 16-16 16z m95 175c-7 90-83 161-175 161-82 0-152-53-173-128l-3 0c-53 0-96-43-96-96 0-53 43-96 96-96l336 0c44 0 80 36 80 80 0 39-28 71-65 79z m-15-127l-336 0c-35 0-64 29-64 64 0 35 29 64 64 64l16 0c8 0 14 5 16 13 12 67 73 115 144 115 79 0 144-65 144-144 0-9 7-16 16-16 26 0 48-22 48-48 0-26-22-48-48-48z"/>
<glyph unicode="&#57471;" d="M496 472l-480 0c-9 0-16-7-16-16l0-400c0-9 7-16 16-16l480 0c9 0 16 7 16 16l0 400c0 9-7 16-16 16z m-16-32l0-64-448 0 0 64z m-448-368l0 272 448 0 0-272z m48 320c4 0 8 2 11 5 3 3 5 7 5 11 0 4-2 8-5 11-6 6-16 6-22 0-3-3-5-7-5-11 0-4 2-8 5-11 3-3 7-5 11-5z m48 0c4 0 8 2 11 5 3 3 5 7 5 11 0 4-2 8-5 11-6 6-16 6-22 0-3-3-5-7-5-11 0-4 2-8 5-11 3-3 7-5 11-5z m48 0c4 0 8 2 11 5 3 3 5 7 5 11 0 4-2 8-5 11-6 6-16 6-22 0-3-3-5-7-5-11 0-4 2-8 5-11 3-3 7-5 11-5z m72-80l-168 0c-9 0-16-7-16-16 0-9 7-16 16-16l168 0c9 0 16 7 16 16 0 9-7 16-16 16z m0-64l-168 0c-9 0-16-7-16-16 0-9 7-16 16-16l168 0c9 0 16 7 16 16 0 9-7 16-16 16z m0-64l-168 0c-9 0-16-7-16-16 0-9 7-16 16-16l168 0c9 0 16 7 16 16 0 9-7 16-16 16z m184 128l-120 0c-9 0-16-7-16-16l0-128c0-9 7-16 16-16l120 0c9 0 16 7 16 16l0 128c0 9-7 16-16 16z m-16-128l-88 0 0 96 88 0z"/>
<glyph unicode="&#57472;" d="M16 40l480 0c9 0 16 7 16 16l0 400c0 9-7 16-16 16l-480 0c-9 0-16-7-16-16l0-400c0-9 7-16 16-16z m16 32l0 272 448 0 0-272z m448 368l0-64-448 0 0 64z m-400-48c4 0 8 2 11 5 3 3 5 7 5 11 0 4-2 8-5 11-6 6-16 6-22 0-3-3-5-7-5-11 0-4 2-8 5-11 3-3 7-5 11-5z m48 0c4 0 8 2 11 5 3 3 5 7 5 11 0 4-2 8-5 11-6 6-16 6-22 0-3-3-5-7-5-11 0-4 2-8 5-11 3-3 7-5 11-5z m48 0c4 0 8 2 11 5 3 3 5 7 5 11 0 4-2 8-5 11-6 6-16 6-22 0-3-3-5-7-5-11 0-4 2-8 5-11 3-3 7-5 11-5z m256-80l-352 0c-9 0-16-7-16-16 0-9 7-16 16-16l352 0c9 0 16 7 16 16 0 9-7 16-16 16z m0-64l-352 0c-9 0-16-7-16-16 0-9 7-16 16-16l352 0c9 0 16 7 16 16 0 9-7 16-16 16z m0-64l-352 0c-9 0-16-7-16-16 0-9 7-16 16-16l352 0c9 0 16 7 16 16 0 9-7 16-16 16z"/>
<glyph unicode="&#57473;" d="M368 512l-64 0c-9 0-16-7-16-16l0-147c-16-5-32-19-32-45l0-288c0-9 7-16 16-16l128 0c9 0 16 7 16 16l0 288c0 26-16 40-32 45l0 147c0 9-7 16-16 16z m-64-192c9 0 16 7 16 16l0 144 32 0 0-144c0-9 7-16 16-16 7 0 16-3 16-16l0-64-96 0 0 64c0 13 9 16 16 16z m-16-112l96 0 0-64-96 0z m0-176l0 80 96 0 0-80z m-71 147c4 3 7 8 7 13l0 128c0 9-7 16-16 16l-96 0c-9 0-16-7-16-16l0-128c0-5 3-10 7-13l41-28 0-119-24 0c-9 0-16-7-16-16 0-9 7-16 16-16l80 0c9 0 16 7 16 16 0 9-7 16-16 16l-24 0 0 119z m-89 125l64 0 0-103-32-22-32 22z"/>
<glyph unicode="&#57474;" d="M496 448l-64 0 0 16c0 9-7 16-16 16l-48 0c-9 0-16-7-16-16l0-16-192 0 0 16c0 9-7 16-16 16l-48 0c-9 0-16-7-16-16l0-16-64 0c-9 0-16-7-16-16l0-384c0-9 7-16 16-16l480 0c9 0 16 7 16 16l0 384c0 9-7 16-16 16z m-112 0l16 0 0-32-16 0z m-272 0l16 0 0-32-16 0z m368-384l-448 0 0 352 48 0 0-16c0-9 7-16 16-16l48 0c9 0 16 7 16 16l0 16 192 0 0-16c0-9 7-16 16-16l48 0c9 0 16 7 16 16l0 16 48 0z m-320 256l-64 0c-9 0-16-7-16-16l0-64c0-9 7-16 16-16l64 0c9 0 16 7 16 16l0 64c0 9-7 16-16 16z m-16-64l-32 0 0 32 32 0z m144 64l-64 0c-9 0-16-7-16-16l0-64c0-9 7-16 16-16l64 0c9 0 16 7 16 16l0 64c0 9-7 16-16 16z m-16-64l-32 0 0 32 32 0z m144 64l-64 0c-9 0-16-7-16-16l0-64c0-9 7-16 16-16l64 0c9 0 16 7 16 16l0 64c0 9-7 16-16 16z m-16-64l-32 0 0 32 32 0z m-240-64l-64 0c-9 0-16-7-16-16l0-64c0-9 7-16 16-16l64 0c9 0 16 7 16 16l0 64c0 9-7 16-16 16z m-16-64l-32 0 0 32 32 0z m144 64l-64 0c-9 0-16-7-16-16l0-64c0-9 7-16 16-16l64 0c9 0 16 7 16 16l0 64c0 9-7 16-16 16z m-16-64l-32 0 0 32 32 0z m144 64l-64 0c-9 0-16-7-16-16l0-64c0-9 7-16 16-16l64 0c9 0 16 7 16 16l0 64c0 9-7 16-16 16z m-16-64l-32 0 0 32 32 0z"/>
<glyph unicode="&#57475;" d="M464 256c0 115-93 208-208 208-115 0-208-93-208-208 0-78 43-146 107-182l-46-47c-7-6-7-16 0-22 3-3 7-5 11-5 4 0 8 2 11 5l56 55c21-8 45-12 69-12 24 0 48 4 69 12l56-55c3-3 7-5 11-5 4 0 8 2 11 5 7 6 7 16 0 22l-46 47c64 36 107 104 107 182z m-135-160c-4 0-9-1-12-5-1 0-1 0-1 0-19-7-39-11-60-11-21 0-41 4-60 11 0 0 0 0-1 0-3 4-8 5-12 5-61 28-103 89-103 160 0 97 79 176 176 176 97 0 176-79 176-176 0-71-42-132-103-160z m-2 142l-55 28 0 86c0 9-7 16-16 16-9 0-16-7-16-16l0-96c0-6 3-12 9-14l64-32c2-1 5-2 7-2 6 0 12 3 14 9 4 8 1 17-7 21z m-184 247c-1 5-6 10-12 11l-80 16c-5 1-11-1-14-5l-32-32c-4-3-6-9-5-14l16-80c1-6 6-11 11-12 2-1 3-1 5-1 4 0 8 2 11 5l96 96c4 4 6 10 4 16z m-101-69l-9 43 20 20 43-9z m438-48c2 0 3 0 5 1 5 1 10 6 11 12l16 80c1 5-1 11-5 14l-32 32c-3 4-9 6-14 5l-80-16c-6-1-11-6-12-11-2-6 0-12 4-16l96-96c3-3 7-5 11-5z m-21 111l20-20-9-43-54 54z"/>
<glyph unicode="&#57476;" d="M496 400l-249 0-60 59c-3 3-7 5-11 5l-160 0c-9 0-16-7-16-16l0-352c0-9 7-16 16-16l480 0c9 0 16 7 16 16l0 288c0 9-7 16-16 16z m-16-288l-448 0 0 320 137 0 60-59c3-3 7-5 11-5l240 0z m-240 144l-64 0c-9 0-16-7-16-16 0-9 7-16 16-16l64 0 0-64c0-9 7-16 16-16 9 0 16 7 16 16l0 64 64 0c9 0 16 7 16 16 0 9-7 16-16 16l-64 0 0 64c0 9-7 16-16 16-9 0-16-7-16-16z"/>
<glyph unicode="&#57477;" d="M256 512c-68 0-133-27-181-75-48-48-75-113-75-181 0-68 27-133 75-181 48-48 113-75 181-75 68 0 133 27 181 75 48 48 75 113 75 181 0 68-27 133-75 181-48 48-113 75-181 75z m158-414c-42-43-98-66-158-66-60 0-116 23-158 66-43 42-66 98-66 158 0 60 23 116 66 158 42 43 98 66 158 66 60 0 116-23 158-66 43-42 66-98 66-158 0-60-23-116-66-158z m-158 350c-51 0-100-20-136-56-36-37-56-85-56-136 0-9 7-16 16-16 9 0 16 7 16 16 0 43 17 83 47 113 30 30 70 47 113 47 43 0 83-17 113-47 30-30 47-70 47-113 0-9 7-16 16-16 9 0 16 7 16 16 0 51-20 99-56 136-36 36-85 56-136 56z m0-184c-2 0-4 0-6-1l-46 52c-6 6-16 7-23 1-6-6-7-16-1-23l46-51c-1-3-2-7-2-10 0-9 3-17 9-23 7-6 15-9 23-9 9 0 17 3 23 9 12 13 12 33 0 46-6 6-15 9-23 9z"/>
<glyph unicode="&#57478;" d="M104 0l304 0c18 0 32 14 32 32l0 448c0 18-14 32-32 32l-304 0c-18 0-32-14-32-32l0-48-16 0c-9 0-16-7-16-16 0-9 7-16 16-16l16 0 0-32-16 0c-9 0-16-7-16-16 0-9 7-16 16-16l16 0 0-32-16 0c-9 0-16-7-16-16 0-9 7-16 16-16l16 0 0-32-16 0c-9 0-16-7-16-16 0-9 7-16 16-16l16 0 0-32-16 0c-9 0-16-7-16-16 0-9 7-16 16-16l16 0 0-32-16 0c-9 0-16-7-16-16 0-9 7-16 16-16l16 0 0-48c0-18 14-32 32-32z m304 32l-64 0 0 448 64 0z m-304 112l16 0c9 0 16 7 16 16 0 9-7 16-16 16l-16 0 0 32 16 0c9 0 16 7 16 16 0 9-7 16-16 16l-16 0 0 32 16 0c9 0 16 7 16 16 0 9-7 16-16 16l-16 0 0 32 16 0c9 0 16 7 16 16 0 9-7 16-16 16l-16 0 0 32 16 0c9 0 16 7 16 16 0 9-7 16-16 16l-16 0 0 48 208 0 0-448-208 0 0 48 16 0c9 0 16 7 16 16 0 9-7 16-16 16l-16 0z"/>
<glyph unicode="&#57479;" d="M308 403c-6 6-17 7-23 1l-144-136c-3-3-5-8-5-12 0-4 2-9 5-12l144-136c3-3 7-4 11-4 4 0 8 2 12 5 6 6 5 17-1 23l-132 124 132 124c6 6 7 17 1 23z m-52 109c-68 0-133-27-181-75-48-48-75-113-75-181 0-68 27-133 75-181 48-48 113-75 181-75 68 0 133 27 181 75 48 48 75 113 75 181 0 68-27 133-75 181-48 48-113 75-181 75z m158-414c-42-43-98-66-158-66-60 0-116 23-158 66-43 42-66 98-66 158 0 60 23 116 66 158 42 43 98 66 158 66 60 0 116-23 158-66 43-42 66-98 66-158 0-60-23-116-66-158z"/>
<glyph unicode="&#57480;" d="M380 307l-124-132-124 132c-6 6-17 7-23 1-6-6-7-17-1-23l136-144c3-3 8-5 12-5 4 0 9 2 12 5l136 144c6 6 5 17-1 23-6 6-17 5-23-1z m-124 205c-68 0-133-27-181-75-48-48-75-113-75-181 0-68 27-133 75-181 48-48 113-75 181-75 68 0 133 27 181 75 48 48 75 113 75 181 0 68-27 133-75 181-48 48-113 75-181 75z m158-414c-42-43-98-66-158-66-60 0-116 23-158 66-43 42-66 98-66 158 0 60 23 116 66 158 42 43 98 66 158 66 60 0 116-23 158-66 43-42 66-98 66-158 0-60-23-116-66-158z"/>
<glyph unicode="&#57481;" d="M0 152c0-9 7-16 16-16l464 0c9 0 16 7 16 16l0 32 16 0 0 128-16 0 0 32c0 9-7 16-16 16l-464 0c-9 0-16-7-16-16z m32 176l432 0 0-160-432 0z m48-16c-9 0-16-7-16-16l0-96c0-9 7-16 16-16 9 0 16 7 16 16l0 96c0 9-7 16-16 16z m48 0c-9 0-16-7-16-16l0-96c0-9 7-16 16-16 9 0 16 7 16 16l0 96c0 9-7 16-16 16z"/>
<glyph unicode="&#57482;" d="M496 384l-136 0 0 48c0 9-7 16-16 16l-176 0c-9 0-16-7-16-16l0-48-136 0c-9 0-16-7-16-16l0-288c0-9 7-16 16-16l480 0c9 0 16 7 16 16l0 288c0 9-7 16-16 16z m-312 32l144 0 0-32-144 0z m296-320l-448 0 0 256 448 0z"/>
<glyph unicode="&#57483;" d="M268 371c-6 6-18 6-24 0l-136-144c-6-6-5-17 1-23 6-6 17-5 23 1l124 132 124-132c4-3 8-5 12-5 4 0 8 1 11 4 6 6 7 17 1 23z m-12 141c-68 0-133-27-181-75-48-48-75-113-75-181 0-68 27-133 75-181 48-48 113-75 181-75 68 0 133 27 181 75 48 48 75 113 75 181 0 68-27 133-75 181-48 48-113 75-181 75z m158-414c-42-43-98-66-158-66-60 0-116 23-158 66-43 42-66 98-66 158 0 60 23 116 66 158 42 43 98 66 158 66 60 0 116-23 158-66 43-42 66-98 66-158 0-60-23-116-66-158z"/>
<glyph unicode="&#57484;" d="M227 404c-6 6-17 5-23-1-6-6-5-17 1-23l132-124-132-124c-6-6-7-17-1-23 4-3 8-5 12-5 4 0 8 1 11 4l144 136c3 3 5 8 5 12 0 4-2 9-5 12z m29 108c-68 0-133-27-181-75-48-48-75-113-75-181 0-68 27-133 75-181 48-48 113-75 181-75 68 0 133 27 181 75 48 48 75 113 75 181 0 68-27 133-75 181-48 48-113 75-181 75z m158-414c-42-43-98-66-158-66-60 0-116 23-158 66-43 42-66 98-66 158 0 60 23 116 66 158 42 43 98 66 158 66 60 0 116-23 158-66 43-42 66-98 66-158 0-60-23-116-66-158z"/>
<glyph unicode="&#57485;" d="M496 384l-154 0c-5 23-24 64-86 64-62 0-81-41-86-64l-154 0c-9 0-16-7-16-16l0-288c0-9 7-16 16-16l480 0c9 0 16 7 16 16l0 288c0 9-7 16-16 16z m-240 32c35 0 48-18 53-32l-106 0c5 14 18 32 53 32z m224-64l0-64-448 0 0 64z m-248-96l48 0 0-16-48 0z m-200-160l0 160 168 0 0-32c0-9 7-16 16-16l80 0c9 0 16 7 16 16l0 32 168 0 0-160z"/>
<glyph unicode="&#57486;" d="M256 512c-68 0-133-27-181-75-48-48-75-113-75-181 0-68 27-133 75-181 48-48 113-75 181-75 68 0 133 27 181 75 48 48 75 113 75 181 0 68-27 133-75 181-48 48-113 75-181 75z m-158-98c12 12 25 23 38 31l83-137c-3-2-6-4-8-7-3-2-5-5-7-8l-137 83c8 13 19 26 31 38z m181-181c-6-6-14-9-23-9-9 0-17 3-23 9-12 13-12 33 0 46 6 6 14 9 23 9 9 0 17-3 23-9 12-13 12-33 0-46z m-181-135c-43 42-66 98-66 158 0 32 7 63 19 91l141-84c-2-19 5-38 19-52 12-12 28-19 45-19 2 0 5 0 7 0l84-141c-28-12-59-19-91-19-60 0-116 23-158 66z m316 0c-12-12-25-23-38-31l-83 137c3 2 6 4 8 7 3 2 5 5 7 8l137-83c-8-13-19-26-31-38z m47 67l-141 84c2 19-5 38-19 52-12 12-28 19-45 19-2 0-4 0-7 0l-84 141c28 12 59 19 91 19 60 0 116-23 158-66 43-42 66-98 66-158 0-32-7-63-19-91z"/>
<glyph unicode="&#57487;" d="M496 352c0 9-7 16-16 16l-464 0c-9 0-16-7-16-16l0-192c0-9 7-16 16-16l464 0c9 0 16 7 16 16l0 32 16 0 0 128-16 0z m-32-176l-432 0 0 160 432 0z m-384 144c-9 0-16-7-16-16l0-96c0-9 7-16 16-16 9 0 16 7 16 16l0 96c0 9-7 16-16 16z m48 0c-9 0-16-7-16-16l0-96c0-9 7-16 16-16 9 0 16 7 16 16l0 96c0 9-7 16-16 16z m48 0c-9 0-16-7-16-16l0-96c0-9 7-16 16-16 9 0 16 7 16 16l0 96c0 9-7 16-16 16z m48 0c-9 0-16-7-16-16l0-96c0-9 7-16 16-16 9 0 16 7 16 16l0 96c0 9-7 16-16 16z"/>
<glyph unicode="&#57488;" d="M0 160c0-9 7-16 16-16l464 0c9 0 16 7 16 16l0 32 16 0 0 128-16 0 0 32c0 9-7 16-16 16l-464 0c-9 0-16-7-16-16z m32 176l432 0 0-160-432 0z m48-16c-9 0-16-7-16-16l0-96c0-9 7-16 16-16 9 0 16 7 16 16l0 96c0 9-7 16-16 16z m48 0c-9 0-16-7-16-16l0-96c0-9 7-16 16-16 9 0 16 7 16 16l0 96c0 9-7 16-16 16z m48 0c-9 0-16-7-16-16l0-96c0-9 7-16 16-16 9 0 16 7 16 16l0 96c0 9-7 16-16 16z m48 0c-9 0-16-7-16-16l0-96c0-9 7-16 16-16 9 0 16 7 16 16l0 96c0 9-7 16-16 16z m48 0c-9 0-16-7-16-16l0-96c0-9 7-16 16-16 9 0 16 7 16 16l0 96c0 9-7 16-16 16z m48 0c-9 0-16-7-16-16l0-96c0-9 7-16 16-16 9 0 16 7 16 16l0 96c0 9-7 16-16 16z"/>
<glyph unicode="&#57489;" d="M256 0c68 0 133 27 181 75 48 48 75 113 75 181 0 68-27 133-75 181-48 48-113 75-181 75-68 0-133-27-181-75-48-48-75-113-75-181 0-68 27-133 75-181 48-48 113-75 181-75z m-158 414c42 43 98 66 158 66 60 0 116-23 158-66 43-42 66-98 66-158 0-60-23-116-66-158-42-43-98-66-158-66-60 0-116 23-158 66-43 42-66 98-66 158 0 60 23 116 66 158z m93-286c1 0 1 0 1 0 4 0 9 2 12 5l200 208c6 6 5 16-1 23-6 6-16 5-23-1l-187-195-77 90c-5 7-16 8-22 2-7-5-8-16-2-22l88-104c3-4 7-6 11-6z"/>
<glyph unicode="&#57490;" d="M0 160c0-9 7-16 16-16l464 0c9 0 16 7 16 16l0 32 16 0 0 128-16 0 0 32c0 9-7 16-16 16l-464 0c-9 0-16-7-16-16z m32 176l432 0 0-160-432 0z m48-16c-9 0-16-7-16-16l0-96c0-9 7-16 16-16 9 0 16 7 16 16l0 96c0 9-7 16-16 16z m48 0c-9 0-16-7-16-16l0-96c0-9 7-16 16-16 9 0 16 7 16 16l0 96c0 9-7 16-16 16z m48 0c-9 0-16-7-16-16l0-96c0-9 7-16 16-16 9 0 16 7 16 16l0 96c0 9-7 16-16 16z m48 0c-9 0-16-7-16-16l0-96c0-9 7-16 16-16 9 0 16 7 16 16l0 96c0 9-7 16-16 16z m48 0c-9 0-16-7-16-16l0-96c0-9 7-16 16-16 9 0 16 7 16 16l0 96c0 9-7 16-16 16z m48 0c-9 0-16-7-16-16l0-96c0-9 7-16 16-16 9 0 16 7 16 16l0 96c0 9-7 16-16 16z m48 0c-9 0-16-7-16-16l0-96c0-9 7-16 16-16 9 0 16 7 16 16l0 96c0 9-7 16-16 16z m48 0c-9 0-16-7-16-16l0-96c0-9 7-16 16-16 9 0 16 7 16 16l0 96c0 9-7 16-16 16z"/>
<glyph unicode="&#57491;" d="M24 232c0-62 24-120 68-164 44-44 102-68 164-68 62 0 120 24 164 68 44 44 68 102 68 164 0 62-24 120-68 164-40 40-92 64-148 67l0 17 32 0c9 0 16 7 16 16 0 9-7 16-16 16l-96 0c-9 0-16-7-16-16 0-9 7-16 16-16l32 0 0-17c-56-3-108-27-148-67-44-44-68-102-68-164z m431 16l-15 0c-9 0-16-7-16-16 0-9 7-16 16-16l15 0c-3-42-19-82-47-114 0 1-1 1-1 2l-23 22c-6 7-16 7-22 0-7-6-7-16 0-22l22-23c1 0 1-1 2-1-32-28-72-44-114-47l0 23c0 9-7 16-16 16-9 0-16-7-16-16l0-23c-42 3-82 19-114 47 1 0 1 1 2 1l22 23c7 6 7 16 0 22-6 7-16 7-22 0l-23-22c0-1-1-1-1-2-28 32-44 72-47 114l15 0c9 0 16 7 16 16 0 9-7 16-16 16l-15 0c3 42 19 82 47 114 0-1 1-1 1-2l23-22c3-4 7-5 11-5 4 0 8 1 11 5 7 6 7 16 0 22l-22 23c-1 0-1 1-2 1 32 28 72 44 114 47l0-15c0-9 7-16 16-16 9 0 16 7 16 16l0 15c42-3 82-19 114-47-1 0-1-1-2-1l-22-23c-7-6-7-16 0-22 3-4 7-5 11-5 4 0 8 1 11 5l23 22c0 1 1 1 1 2 28-32 44-72 47-114z m-183 12l0 68c0 9-7 16-16 16-9 0-16-7-16-16l0-68c-10-6-16-16-16-28 0-18 14-32 32-32 18 0 32 14 32 32 0 12-6 22-16 28z"/>
<glyph unicode="&#57492;" d="M256 512c-68 0-133-27-181-75-48-48-75-113-75-181 0-68 27-133 75-181 48-48 113-75 181-75 68 0 133 27 181 75 48 48 75 113 75 181 0 68-27 133-75 181-48 48-113 75-181 75z m158-414c-42-43-98-66-158-66-60 0-116 23-158 66-43 42-66 98-66 158 0 60 23 116 66 158 42 43 98 66 158 66 60 0 116-23 158-66 43-42 66-98 66-158 0-60-23-116-66-158z m-40 125l-102 44 0 165c0 9-7 16-16 16-9 0-16-7-16-16l0-176c0-6 4-12 10-15l112-48c2-1 4-1 6-1 6 0 12 4 15 10 3 8-1 17-9 21z m-278 49l-16 0c-9 0-16-7-16-16 0-9 7-16 16-16l16 0c9 0 16 7 16 16 0 9-7 16-16 16z m304-16c0-9 7-16 16-16l16 0c9 0 16 7 16 16 0 9-7 16-16 16l-16 0c-9 0-16-7-16-16z m-144-144c-9 0-16-7-16-16l0-16c0-9 7-16 16-16 9 0 16 7 16 16l0 16c0 9-7 16-16 16z"/>
<glyph unicode="&#57493;" d="M464 160c9 0 16 7 16 16l0 288c0 9-7 16-16 16l-192 0 0 16c0 9-7 16-16 16-9 0-16-7-16-16l0-16-192 0c-9 0-16-7-16-16l0-288c0-9 7-16 16-16l192 0 0-81-51-52c-7-6-7-16 0-22 6-7 16-7 22 0l29 28 0-17c0-9 7-16 16-16 9 0 16 7 16 16l0 17 29-28c3-3 7-5 11-5 4 0 8 2 11 5 7 6 7 16 0 22l-51 52 0 81z m-400 288l384 0 0-256-384 0z m304-128c0-9 7-16 16-16 9 0 16 7 16 16l0 80c0 1 0 2 0 3 0 1-1 1-1 2 0 0 0 1 0 1 0 1-1 1-1 2 0 0 0 0-1 1-1 2-2 3-4 4-1 1-1 1-1 1-1 0-1 1-2 1 0 0-1 0-1 0-1 0-1 1-2 1-1 0-2 0-3 0l-80 0c-9 0-16-7-16-16 0-9 7-16 16-16l41 0-105-105-37 36c-6 7-16 7-22 0l-64-64c-7-6-7-16 0-22 3-3 7-5 11-5 4 0 8 2 11 5l53 52 37-36c6-7 16-7 22 0l117 116z"/>
<glyph unicode="&#57494;" d="M480 111l-139 66c18 9 91 12 97 28 0 0-29 44-36 101-2 23-7 52-12 93-7 66-63 113-134 113 0 0 0 0 0 0 0 0 0 0 0 0-71 0-127-47-134-113-5-41-9-70-12-92-7-58-36-102-36-102 6-16 79-19 97-28l-139-66c0 0-32-12-32-38l0-42c0-18 14-31 32-31l448 0c18 0 32 13 32 31l0 42c0 26-32 38-32 38z m-448-79l0 41c0 2 6 6 11 8 1 0 2 0 3 1l139 66c11 5 18 16 18 28 0 13-6 24-17 29-11 6-26 8-48 12-5 1-13 3-20 4 9 21 20 49 24 82 1 8 2 17 3 27 3 17 6 39 9 65 5 50 47 85 102 85 0 0 0 0 0 0 0 0 0 0 0 0 55 0 97-35 102-85 3-26 6-48 9-65 1-10 2-19 3-27 4-33 15-61 24-82-7-1-15-3-20-4-22-4-37-6-48-12-11-5-17-16-17-29 0-12 7-23 18-28l139-66c1-1 2-1 3-1 5-2 10-6 11-8l0-41z"/>
<glyph unicode="&#57495;" d="M32 65c0 12 10 16 13 18l141 66c10 5 17 15 18 26 2 11-3 22-11 28-34 27-49 86-49 117l0 80c0 33 58 80 112 80 54 0 112-46 112-80l0-80c0-31-13-90-47-117-9-7-14-17-12-29 1-11 8-20 18-25l48-23 8 32-42 20c44 35 59 104 59 142l0 80c0 53-73 112-144 112-71 0-144-59-144-112l0-80c0-35 16-106 61-142l-141-66c0 0-32-14-32-32l0-48c0-17 14-32 32-32l352 0 0 32-352 0z m464 31l-48 0 0 48c0 9-7 16-16 16-9 0-16-7-16-16l0-48-48 0c-9 0-16-7-16-16 0-9 7-16 16-16l48 0 0-48c0-9 7-16 16-16 9 0 16 7 16 16l0 48 48 0c9 0 16 7 16 16 0 9-7 16-16 16z"/>
<glyph unicode="&#57496;" d="M32 32l0 33c0 12 9 16 13 18l141 66c10 5 17 15 18 26 1 11-3 21-12 28-33 27-48 86-48 117l0 80c0 33 58 80 112 80 54 0 112-46 112-80l0-80c0-31-13-90-48-117-8-7-13-18-12-29 2-11 9-20 19-25l81-39 19 27-87 41c45 35 60 104 60 142l0 80c0 53-74 112-144 112-71 0-144-59-144-112l0-80c0-35 15-106 60-142l-140-66c0 0-32-14-32-32l0-48c0-18 14-32 32-32l320 0-26 32z m474 118c-7 6-17 4-22-2l-69-105-42 43c-7 6-17 6-23 0-6-7-6-17 0-23l57-56c6-7 16-7 22 0 2 1 3 3 4 5l76 116c5 7 4 17-3 22z"/>
<glyph unicode="&#57497;" d="M400 320l0 80c0 53-74 112-144 112-71 0-144-59-144-112l0-80c0-35 15-106 60-141l-140-67c0 0-32-14-32-32l0-48c0-17 14-32 32-32l304 0 0 32-304 0 0 33c0 12 9 16 13 18l141 66c10 5 17 15 18 26 1 11-3 22-12 28-33 27-48 86-48 117l0 80c0 33 58 80 112 80 54 0 112-46 112-80l0-80c0-31-13-90-48-117-8-6-13-17-12-28 2-12 9-21 19-26l9-4 14 26-10 7c45 35 60 104 60 142z m62-247l46 45c6 6 6 16 0 22-7 7-17 7-23 0l-45-45-46 45c-6 7-16 7-22 0-6-6-6-16 0-22l45-45-45-46c-6-6-6-16 0-22 6-7 16-7 22 0l46 45 45-45c6-7 16-7 23 0 6 6 6 16 0 22z"/>
<glyph unicode="&#57498;" d="M368 48l-225 0c-9 0-16-7-16-16 0-9 7-16 16-16l225 0c9 0 16 7 16 16 0 9-7 16-16 16z m141 403c-2 8-8 13-16 13l-78 0 0 16c0 9-7 16-16 16l-288 0c-9 0-16-7-16-16l0-16-76 0c-8 0-14-5-16-13 0-2-11-58 20-96 18-22 46-34 82-35 20-60 72-105 134-112l0-111-48 0c-9 0-16-8-16-16 0-9 7-16 16-16l129 0c9 0 16 7 16 16 0 8-7 16-16 16l-49 0 0 111c62 7 113 51 134 112 37 1 65 12 84 35 31 38 20 94 20 96z m-461-76c-14 17-15 42-15 57l62 0 0-54c0-9 1-17 2-25-22 2-38 9-49 22z m335 3c0-77-58-139-128-139-71 0-128 62-128 139l0 86 256 0 0-86z m81-3c-11-13-28-21-51-23 1 9 2 17 2 26l0 54 64 0c0-15-1-40-15-57z"/>
<glyph unicode="&#57499;" d="M352 512l-192 0c-27 0-48-21-48-48l0-416c0-27 21-48 48-48l192 0c27 0 48 21 48 48l0 416c0 27-21 48-48 48z m16-464c0-9-7-16-16-16l-192 0c-9 0-16 7-16 16l0 416c0 9 7 16 16 16l192 0c9 0 16-7 16-16z m-112 64c-18 0-32-14-32-32 0-18 14-32 32-32 18 0 32 14 32 32 0 18-14 32-32 32z m32 352l-64 0c-9 0-16-7-16-16 0-9 7-16 16-16l64 0c9 0 16 7 16 16 0 9-7 16-16 16z"/>
<glyph unicode="&#57500;" d="M480 464l-448 0c-18 0-32-14-32-32l0-272c0-18 14-32 32-32l208 0 0-48-80 0c-9 0-16-7-16-16 0-9 7-16 16-16l192 0c9 0 16 7 16 16 0 9-7 16-16 16l-80 0 0 48 208 0c18 0 32 14 32 32l0 272c0 18-14 32-32 32z m0-304l-448 0 0 272 448 0z"/>
<glyph unicode="&#57501;" d="M467 479c5 0 9-1 11-2 2-6 5-28-17-50l-106-106-10-10 1-14c2-30 5-84 8-130 2-41 5-80 5-83 0-2 0-3-2-5-5-6-14-16-21-24-12 31-36 97-49 133l-17 48-36-36-65-63-9-9-1-13c0-10 0-28 0-44 0-12 0-22 0-28 0 0 2 0 2-1-1 3-3 5-4 7-13 21-32 51-37 60l-4 6-7 4c-24 15-51 32-67 42 0 1 1-1 1-1l1 0c5 0 14 0 23 0 13 0 27 0 38 0 4 0 8 0 11 0l12 0 10 9 62 65 36 35-47 18c-35 13-103 38-135 50 8 7 18 16 24 21 1 1 3 2 4 2l1 0c3 0 47-3 89-6 45-3 96-6 125-8l14-1 11 10 105 105c16 17 32 19 40 19m0 32c-19 0-42-7-63-28l-105-105c-59 4-211 14-215 14-1 0-1 0-2 0-6 0-14-1-24-10-12-9-37-33-37-33-6-6-9-13-8-20 0-4 2-12 13-16 6-2 106-40 152-56l-63-65c-3 0-6 0-10 0-19 0-49 0-61 0-2 0-3 0-4 0-3 0-11 2-31-15l-1-1c-6-6-7-12-8-16 0-4 1-10 7-14 4-3 49-32 86-54 8-15 49-79 51-83 3-5 8-8 14-8 0 0 1 0 1 0 6 0 12 3 18 9 16 19 14 27 14 31 0 10 0 56 0 74l66 62c16-45 53-144 55-150 4-11 12-13 16-13 1 0 2 0 2 0 7 0 13 3 19 8 0 0 23 24 32 36 10 12 10 23 10 27 0 4-10 155-13 214l105 105c38 37 32 82 18 96-6 6-19 11-34 11z"/>
<glyph unicode="&#57502;" d="M425 512l-319 0c-23 0-33-17-33-33l0-64-18 0c-9 0-16-7-16-15 0-9 7-16 16-16l18 0 0-64-16 0c-9 0-16-7-16-16 0-9 7-16 16-16l16 0 0-64-17 0c-8 0-15-7-15-16 0-9 7-16 15-16l17 0 0-64-17 0c-8 0-15-7-15-16 0-8 7-15 15-15l17 0 0-65c0-27 20-32 32-32l320 0c26 0 48 21 48 48l0 416c0 27-22 48-48 48z m-320-480l0 65 16 0c9 0 16 7 16 15 0 9-7 16-16 16l-16 0 0 64 16 0c9 0 16 7 16 16 0 9-7 16-16 16l-16 0 0 64 17 0c8 0 15 7 15 16 0 9-7 16-15 16l-17 0 0 64 15 0c9 0 16 7 16 16 0 8-7 15-16 15l-15 0 0 64c0 0 0 1 0 1 0 0 0 0 1 0l255 0 0-448z m336 16c0-9-8-16-16-16l-32 0 0 448 32 0c8 0 16-7 16-16z"/>
<glyph unicode="&#57503;" d="M396 144c-50 0-79 23-98 39-7 6-13 11-18 16-9 7-19 17-23 18 0 0-2 0-2 0-1 0-2 0-2 0-3-1-12-9-19-15-7-6-14-12-23-19l-1-1c-22-17-49-38-97-38-35 0-70 16-91 42-14 17-29 47-19 92 1 6 5 10 10 12 5 2 11 1 15-2 0-1 11-9 30-9 9 0 18 2 28 6 17 8 28 28 41 42 17 19 36 41 68 41 22 0 42-8 60-24 18 16 37 24 59 24 32 0 52-22 69-41 13-14 25-34 42-42 9-4 19-6 28-6 19 0 31 8 32 9 4 3 10 4 15 2 5-2 9-7 10-12 8-45-7-75-21-92-21-26-57-42-93-42z m-141 105c1 0 2 0 3 0 0 0 2 0 2 0 0 0 2 0 2 0 11-2 22-11 38-26 6-4 12-10 18-15 17-14 39-32 78-32 27 0 53 11 69 30 10 13 15 28 16 45-8-2-17-4-28-4-13 0-27 3-41 9-23 10-38 35-52 50-17 18-29 30-46 30-23 0-38-14-47-25-3-4-7-6-12-6-5 0-9 2-12 6-9 11-24 25-47 25-18 0-29-11-46-30-13-15-28-40-51-50-14-6-28-9-41-9-11 0-19 2-27 4 0-17 5-33 16-45 14-19 40-30 66-30 37 0 58 16 77 31l2 1c8 7 15 13 21 18 15 12 24 20 34 22 0 0 5 1 8 1z"/>
<glyph unicode="&#57504;" d="M257 512c-79 0-145-64-145-143l0-226c0-79 66-143 145-143 79 0 143 64 143 143l0 226c0 79-64 143-143 143z m111-369c0-61-50-111-111-111-62 0-113 50-113 111l0 226c0 61 51 111 113 111 61 0 111-50 111-111z m-112 273c-9 0-16-7-16-16l0-80c0-9 7-16 16-16 9 0 16 7 16 16l0 80c0 9-7 16-16 16z"/>
<glyph unicode="&#57505;" d="M480 482l0 14c0 9-7 16-16 16l-112 0c-9 0-16-7-16-16l0-65c0 0 0 0 0 0l0-199c0-48-27-87-75-87-49 0-85 39-85 87l0 250 0 0 0 14c0 9-7 16-16 16l-112 0c-9 0-16-7-16-16l0-65c0 0 0-1 0-1l0-205c0-125 99-225 224-225 124 0 224 100 224 225l0 257z m-32-2l0-64-80 0 0 64z m-304 0l0-64-80 0 0 64z m112-448c-107 0-192 86-192 193l0 159 80 0 0-152c0-66 51-119 117-119 65 0 107 53 107 119l0 152 80 0 0-159c0-107-86-193-192-193z"/>
<glyph unicode="&#57506;" d="M298 480l0 0m0 0l-36-190 130 0-178-258 36 209-130 1 178 238m0 32c-1 0-2 0-3 0-6-1-9-3-14-6-2-1-4-3-6-6-1 0-2-1-2-2l-179-237c-7-10-8-23-3-33 5-11 16-18 28-18l93-1-29-171c-3-14 5-29 19-35 4-2 8-3 12-3 10 0 19 5 25 14l179 257c7 9 8 22 3 33-5 11-16 17-28 18l-93 0 29 150c1 3 1 5 1 8 0 17-14 31-31 32-1 0-1 0-1 0z"/>
<glyph unicode="&#57507;" d="M391 208c-8 4-18 0-21-8-1 0-34-72-115-73-1 0-1 0-2 0-77 0-110 70-111 73-4 8-13 12-21 8-8-3-12-13-8-21 1-4 42-92 140-92 1 0 2 0 2 0 102 1 142 89 144 92 3 8 0 18-8 21z m-135 304c-141 0-256-115-256-256 0-141 115-256 256-256 141 0 256 115 256 256 0 141-115 256-256 256z m0-480c-124 0-224 100-224 224 0 124 100 224 224 224 124 0 224-100 224-224 0-124-100-224-224-224z m-80 240c17 0 32 14 32 32 0 18-15 32-32 32-18 0-32-14-32-32 0-18 14-32 32-32z m160 0c17 0 32 14 32 32 0 18-15 32-32 32-18 0-32-14-32-32 0-18 14-32 32-32z"/>
<glyph unicode="&#57508;" d="M256 512c-141 0-256-115-256-256 0-141 115-256 256-256 141 0 256 115 256 256 0 141-115 256-256 256z m224-256c0-33-7-65-20-93l-142 76c2 5 3 11 3 17 0 36-29 65-65 65-7 0-14-2-21-4l-85 136c32 17 68 27 106 27 124 0 224-100 224-224z m-224 32c18 0 33-14 33-32 0-18-15-33-33-33-18 0-32 15-32 33 0 18 14 32 32 32z m-133 148l85-137c0 0 0 0-1-1l-141 76c15 24 34 45 57 62z m-91-180c0 32 7 62 19 90l142-76c-1-5-2-9-2-14 0-36 29-65 65-65 6 0 12 1 18 3l85-137c-31-16-66-25-103-25-124 0-224 100-224 224z m354-182l-85 136c1 1 1 1 1 1l142-76c-15-24-35-45-58-61z"/>
<glyph unicode="&#57509;" d="M508 264l-4 4c0 0 0 0 0 0l-65 59c-5 5-12 5-17 0l-3-4c-5-4-3-12 2-16l38-35-186 0 0 187 35-38c4-5 12-7 16-2l4 3c5 5 5 12 0 17l-56 62c-2 3-4 5-7 6l0 1c-3 3-6 4-8 4-3 0-6-1-9-4l-4-4c0 0 0 0 0 0l-58-64c-4-5-4-12 0-17l4-3c5-4 12-3 17 2l34 38 0-188-188 0 38 35c5 4 7 12 2 16l-3 4c-5 5-12 5-17 0l-62-56c-3-2-5-4-6-7l-1 0c-3-3-4-5-4-8 0-3 1-6 4-9l4-4c0 0 0 0 0 0l64-58c5-4 12-4 17 0l3 4c4 5 3 12-2 17l-38 34 189 0 0-188-34 38c-5 5-12 6-17 2l-4-3c-4-5-4-12 0-17l58-64c0 0 0 0 0 0l4-4c3-3 6-4 9-4 3 0 5 1 8 4l4 4c0 0 0 0 0 0l59 65c5 5 5 12 0 17l-4 3c-4 5-12 3-16-2l-35-38 0 187 187 0-38-34c-5-5-6-12-2-17l3-4c5-4 12-4 17 0l64 58c0 0 0 0 0 0l4 4c3 3 4 6 4 9 0 2-1 5-4 8z"/>
<glyph unicode="&#57510;" d="M496 112l-64 0 0 297 60 60c6 6 6 16 0 22-7 6-17 6-23 0l-59-59-298 0 0 64c0 9-7 16-16 16-9 0-16-7-16-16l0-64-64 0c-9 0-16-7-16-16 0-9 7-16 16-16l64 0 0-304c0-1 0-3 1-4 0-1 0-1 0-2 2-4 5-7 9-9 1 0 1 0 2 0 1-1 3-1 4-1l304 0 0-64c0-9 7-16 16-16 9 0 16 7 16 16l0 64 64 0c9 0 16 7 16 16 0 9-7 16-16 16z m-118 288l-266-265 0 265z m-243-288l265 265 0-265z"/>
<glyph unicode="&#57511;" d="M464 424l-416 0c-27 0-48-21-48-48l0-240c0-27 21-48 48-48l416 0c27 0 48 21 48 48l0 240c0 27-21 48-48 48z m-416-32l416 0c9 0 16-7 16-16l0-32-448 0 0 32c0 9 7 16 16 16z m416-272l-416 0c-9 0-16 7-16 16l0 144 448 0 0-144c0-9-7-16-16-16z"/>
<glyph unicode="&#57512;" d="M405 27l-85 100 0 177 11 0c9 0 16 7 16 16 0 9-7 16-16 16l-27 0c-9 0-16-7-16-16l0-199c0-4 1-7 4-10l65-79-202 0 65 79c3 3 4 6 4 10l0 199c0 9-7 16-16 16l-27 0c-9 0-16-7-16-16 0-9 7-16 16-16l11 0 0-177-85-100c-4-5-6-12-3-18 3-5 8-9 15-9l274 0c7 0 12 4 15 9 3 6 1 13-3 18z m-165 325c18 0 32 14 32 32 0 18-14 32-32 32-18 0-32-14-32-32 0-18 14-32 32-32z m104 48c31 0 57 25 57 56 0 31-26 56-57 56-31 0-56-25-56-56 0-31 25-56 56-56z m0 80c13 0 24-11 24-24 0-13-11-24-24-24-13 0-24 11-24 24 0 13 11 24 24 24z"/>
<glyph unicode="&#57513;" d="M256 480c54 0 112-46 112-80l0-80c0-31-13-90-47-117-9-6-14-17-12-28 1-12 8-21 18-26l139-66c1 0 14-2 14-19l0-32-448 0 0 33c0 12 10 16 13 18l141 67c10 4 17 14 18 25 2 11-3 22-11 29-34 26-49 85-49 116l0 80c0 33 58 80 112 80m0 32c-71 0-144-59-144-112l0-80c0-35 16-106 60-141l-140-67c0 0-32-14-32-32l0-48c0-17 14-32 32-32l448 0c17 0 32 15 32 32l0 48c0 19-32 32-32 32l-139 66c44 35 59 104 59 142l0 80c0 53-73 112-144 112z"/>
<glyph unicode="&#57514;" d="M256 494c-141 0-256-115-256-256 0-88 45-169 120-216 8-5 18-3 22 5 5 7 3 17-5 22-27 17-49 39-66 64l16 10c8 4 11 14 6 22-4 7-14 10-22 5l-16-9c-13 25-20 53-22 81l18 0c9 0 16 8 16 16 0 9-7 16-16 16l-18 0c2 30 10 58 22 83l16-9c3-2 6-3 8-3 6 0 11 3 14 8 5 8 2 18-6 22l-16 9c16 24 37 44 60 60l9-16c3-5 9-8 14-8 3 0 6 1 8 2 8 5 11 15 6 22l-9 16c25 12 52 19 81 21l0-20c0-9 7-16 16-16 8 0 16 7 16 16l0 20c29-2 57-9 82-22l-9-15c-4-7-2-17 6-22 3-1 5-2 8-2 6 0 11 3 14 8l9 15c23-16 43-36 59-59l-15-9c-8-4-10-14-6-22 3-5 8-8 14-8 3 0 5 1 8 3l15 8c12-25 20-53 22-82l-18 0c-8 0-16-7-16-16 0-9 8-16 16-16l18 0c-2-28-9-56-21-81l-16 9c-8 5-18 2-22-5-4-8-2-18 6-22l16-9c-18-27-41-49-69-66-7-5-10-15-5-22 3-5 8-8 14-8 2 0 5 1 8 2 76 47 122 129 122 218 0 141-115 256-256 256z m118-206c8 5 10 14 6 22-5 8-14 10-22 6l-87-50c-4 2-10 4-15 4-18 0-32-14-32-32 0-18 14-32 32-32 17 0 31 14 31 32 0 0 0 0 0 0z"/>
<glyph unicode="&#57515;" d="M470 417c-14 10-52 23-214 23-174 0-199-15-208-20-44-26-48-143-48-167 0-31 5-136 48-161 8-5 34-20 208-20 162 0 201 13 214 23 38 27 42 120 42 158 0 32-3 136-42 164z m-18-296c-6-4-38-17-196-17-153 0-185 11-191 15-16 9-32 59-33 134 1 76 18 131 33 140 6 3 38 15 191 15 158 0 190-13 196-17 13-10 28-62 28-138 0-77-15-122-28-132z m-92 148l-144 88c-5 3-11 3-16 0-5-3-8-8-8-14l0-176c0-6 3-12 8-14 3-2 5-2 8-2 3 0 6 0 8 2l144 88c5 3 8 8 8 14 0 5-3 11-8 14z m-136-74l0 120 97-60z"/>
<glyph unicode="&#57516;" d="M342 433c27 0 51-11 67-29 21 5 41 12 59 22-7-21-22-38-41-49 19 2 37 7 53 14-12-18-28-34-46-46 0-4 0-8 0-12 0-118-92-254-261-254-52 0-100 15-141 40 7 0 14-1 22-1 43 0 83 14 114 38-40 1-74 27-86 62 6-1 11-1 17-1 9 0 17 1 25 3-42 8-74 44-74 87 0 1 0 1 0 1 12-6 26-10 42-11-25 16-41 44-41 75 0 16 4 31 12 44 45-54 113-89 190-93-2 7-3 14-3 20 0 50 41 90 92 90m138-42l0 0m-138 74c-63 0-115-46-123-106-51 11-98 38-131 78-7 7-16 11-25 11-1 0-2 0-2 0-11-1-20-6-25-15-12-19-17-40-17-61 0-15 2-29 7-42-5-6-8-14-8-22l0-1c0-31 12-60 33-82-1-5-1-11 1-17 7-21 20-40 36-54-11-3-22-4-34-4-6 0-13 1-18 1-2 0-3 0-4 0-14 0-26-8-30-21-5-14 0-30 13-38 47-29 102-45 158-45 182 0 291 143 293 282 15 12 29 27 40 43 4 5 6 12 6 19 0 11-5 20-14 26 4 12 0 26-10 34-6 5-13 7-20 7-6 0-11-1-16-4-11-6-22-11-34-15-22 17-48 26-76 26z"/>
<glyph unicode="&#57517;" d="M264 480l0-112 112 0 0-48-111 0-1-139c0-26 2-43 4-50 5-12 20-26 49-26 22 0 53 6 75 23l0-74c-19-9-36-13-52-17-15-3-31-5-49-5-20 0-77 0-100 60-5 11-7 26-7 47l0 181-64 0 0 49c22 0 86 13 86 111l58 0m0 32l-58 0c-18 0-32-14-32-32 0-73-41-79-54-79-17 0-32-14-32-32l0-49c0-8 3-16 9-22 6-6 14-10 23-10l32 0 0-149c0-25 3-44 9-59 14-36 49-80 130-80 20 0 39 2 57 6l3 1c15 3 34 8 55 18 11 5 18 16 18 29l0 74c0 12-7 23-18 29-4 2-9 3-14 3-7 0-13-2-19-6-19-14-43-17-56-17-13 0-18 4-19 5 0 3-2 12-2 39l0 107 80 0c18 0 32 15 32 32l0 48c0 18-14 32-32 32l-80 0 0 80c0 18-14 32-32 32z"/>
<glyph unicode="&#57518;" d="M291 472c2 0 3 0 3 0l42 0-1-48-41 0c-23 0-22-20-22-20l0-76 80 0-11-48-70 0 0-240-48 0 0 240-63 0 0 48 63 0c0 0 0 59 0 75 0 65 54 69 68 69m45 0l0 0m-45 32c-12 0-34-2-55-15-21-12-45-37-45-86l0-43-31 0c-9 0-17-3-23-9-6-6-9-15-9-23l0-48c0-18 14-32 32-32l31 0 0-208c0-17 15-32 32-32l48 0c18 0 32 15 32 32l0 208 38 0c14 0 27 10 31 23l11 48c3 10 1 20-5 28-6 8-15 13-26 13l-48 0 0 32 31 0c18 0 32 14 32 32l1 46c0 0 0 1 0 2 0 17-15 32-32 32l-41 0c-1 0-2 0-4 0z"/>
<glyph unicode="&#57519;" d="M512 400c-1 5-3 9-8 12l-142 89c-6 4-14 3-19-1l-87-71-87 71c-5 4-13 5-19 1l-142-89c-5-3-7-7-8-12 0-5 2-10 6-14l83-69-71-56c-4-3-7-8-6-13 0-5 3-10 7-13l65-43c-3-3-5-7-5-12l0-64c0-6 3-11 8-14l161-91c2-2 5-2 8-2 3 0 6 0 8 2l159 91c5 3 8 8 8 14l0 75c0 1 0 2 0 3l62 41c4 3 7 8 7 13 0 5-2 10-6 13l-71 56 83 69c4 4 6 9 6 14z m-144-83l-112-71-112 71 112 73z m-325 80l115 71 71-58-114-74z m72-100l113-71-64-49-109 73z m-4-123l45-30c5-4 13-3 18 1l65 49 0-141-128 72z m288-49l-128-73 0 144 66-51c3-2 7-4 10-4 3 0 6 1 9 3l43 29 0-48z m58 125l-109-73-64 49 113 71z m-60 86l-114 74 71 58 115-71z"/>
<glyph unicode="&#57520;" d="M256 512c-35 0-68-7-99-20-1 0-2-1-3-1-90-40-154-130-154-235 0-141 115-256 256-256 141 0 256 115 256 256 0 141-115 256-256 256z m224-256c0-2 0-4 0-5-25 6-87 18-164 2-6 15-14 31-22 47-1 1-2 3-2 4 82 32 117 74 131 101 35-40 57-92 57-149z m-81 172c-8-17-35-63-123-96-39 72-70 116-87 138 21 6 44 10 67 10 54 0 104-20 143-52z m-241 29c14-16 45-58 88-135-100-30-182-27-210-24 14 70 60 129 122 159z m-126-201c0 3 0 7 0 10 10-1 25-2 45-2 43 0 108 6 184 29 1-2 3-5 4-8 8-14 14-27 20-41-14-4-28-9-42-16-91-41-134-100-149-126-38 40-62 94-62 154z m86-176c8 15 45 77 138 119 14 6 28 11 41 15 31-77 41-140 45-165-27-11-56-17-86-17-52 0-100 18-138 48z m254-16c-5 31-16 89-43 158 74 15 133 1 148-4-11-65-51-120-105-154z"/>
<glyph unicode="&#57521;" d="M454 440c-6 5-14 8-22 8-1 0-1 0-2 0-1 0-6 0-14 0-13 0-39 1-64 7-32 8-68 44-79 51-5 4-12 6-18 6-6 0-12-2-17-6-2-1-40-42-78-51-24-6-51-7-64-7-8 0-13 0-14 0-1 0-1 0-2 0-8 0-16-3-22-8-6-6-10-15-10-24l0-80c0-295 193-334 202-335 1 0 3-1 5-1 2 0 4 1 6 1 8 1 203 40 203 335l0 80c0 9-4 18-10 24z m-22-104c0-272-177-304-177-304 0 0-175 32-175 304 0 70 0 80 0 80 0 0 6 0 16 0 16 0 45 1 72 8 44 11 87 56 87 56 0 0 45-45 90-56 27-7 55-8 71-8 10 0 16 0 16 0 0 0 0-10 0-80z m-108 3c-6 6-17 6-23 0l-45-45-45 45c-7 6-17 6-23 0-6-6-6-17 0-23l45-45-45-45c-6-6-6-17 0-23 6-6 16-6 23 0l45 45 45-45c6-6 17-6 23 0 6 6 6 17 0 23l-45 45 45 45c6 6 6 17 0 23z"/>
<glyph unicode="&#57522;" d="M416 512l-320 0c-27 0-48-21-48-48l0-416c0-27 21-48 48-48l320 0c27 0 48 21 48 48l0 416c0 27-21 48-48 48z m16-464c0-9-7-16-16-16l-320 0c-9 0-16 7-16 16l0 416c0 9 7 16 16 16l320 0c9 0 16-7 16-16z m-176 64c-18 0-32-14-32-32 0-18 14-32 32-32 18 0 32 14 32 32 0 18-14 32-32 32z m32 352l-64 0c-9 0-16-7-16-16 0-9 7-16 16-16l64 0c9 0 16 7 16 16 0 9-7 16-16 16z"/>
<glyph unicode="&#57523;" d="M510 297l-51 77 25 90c2 5 0 11-4 15-4 4-10 6-15 4l-90-26-77 52c-5 3-11 4-16 1-5-2-9-8-9-14l-3-93-73-57c-4-3-7-9-6-15 1-6 5-11 11-13l68-24c0-1-1-1-1-1l-265-266c-7-6-7-16 0-22 3-3 7-5 11-5 4 0 8 2 11 5l266 265c1 1 1 2 2 4l27-74c2-6 7-10 13-11 0 0 1 0 2 0 5 0 10 2 13 6l57 74 92 3c5 1 11 4 13 9 3 5 3 11-1 16z m-113 4c-5 0-9-3-12-6l-44-57-24 67c-2 5-5 8-10 10l-67 24 56 44c4 3 6 7 6 12l2 71 60-39c4-3 9-4 13-3l69 20-20-68c-1-5 0-10 2-14l40-59z"/>
<glyph unicode="&#57524;" d="M417 480l-33 0 0-108c0-52-28-92-89-123 63-32 90-71 90-129 0-38 0-70 0-88l32 0c8 0 16-7 16-16 0-9-8-16-16-16l-322 0c-8 0-16 7-16 16 0 9 8 16 16 16l33 0c0 18 0 50 0 88 0 58 26 97 89 129-60 31-88 71-88 123l0 108-34 0c-8 0-16 7-16 16 0 9 8 16 16 16l322 0c8 0 16-7 16-16 0-9-8-16-16-16z m-257-360c0-38 0-70 0-88l193 0c0 18 0 50 0 88 0 44-17 79-97 112-80-33-96-68-96-112z m192 360l-191 0 0-108c0-31 10-70 95-105 85 35 96 74 96 105z"/>
<glyph unicode="&#57525;" d="M495 164l0 129 8 4c6 3 9 8 9 14 0 6-3 12-8 14l-241 129c-5 3-11 3-15 0l-240-129c-5-3-8-8-8-14 0-6 3-11 8-14l106-56c-2-2-3-5-3-8l0-135c0-5 2-9 6-12 3-3 36-30 138-30 101 0 136 25 139 28 4 3 6 8 6 13l0 139c0 2 0 4-1 6l64 34 0-112c-9-6-15-16-15-28 0-17 14-32 32-32 17 0 32 15 32 32 0 12-7 22-17 28z m-127-58c-13-6-46-18-113-18-67 0-100 13-112 19l0 118 104-55c3-1 5-2 8-2 2 0 5 1 7 2l106 56z m-113 96l-206 109 206 111 207-110z"/>
<glyph unicode="&#57526;" d="M256 512c-115 0-208-100-208-223l0-273c0-7 4-13 10-15 2-1 4-1 6-1 5 0 9 2 12 5l60 67 48-65c3-5 7-7 12-7l0 0c6 0 10 2 13 6l48 64 46-64c3-4 8-6 13-6 5 0 10 2 13 6l48 66 59-67c4-5 11-6 18-4 6 2 10 8 10 15l0 273c0 123-93 223-208 223z m176-454l-44 50c-4 3-8 5-13 5-5 0-9-3-12-6l-47-64-46 63c-3 5-8 7-13 7l0 0c-5 0-10-2-13-6l-47-64-46 64c-3 3-8 6-12 6-1 0-1 0-1 0-5 0-9-2-12-5l-46-51 0 232c0 105 79 191 176 191 97 0 176-86 176-191l0-231z m-96 278c-18 0-32-14-32-32 0-18 14-32 32-32 18 0 32 14 32 32 0 18-14 32-32 32z m-160 0c-18 0-32-14-32-32 0-18 14-32 32-32 18 0 32 14 32 32 0 18-14 32-32 32z"/>
<glyph unicode="&#57527;" d="M372 474c-13 6-25 12-36 17-29 15-54 21-79 21-49 0-83-28-104-49l-18-18-12-12-17-17-27-27-29-30c-56-55-65-112-29-183 5-11 11-23 17-36 32-69 66-140 121-140 1 0 3 0 4 0 57 4 73 77 87 141 2 10 4 20 6 29 4 15 12 24 32 45l3 3 2 1 2 2 2 3c21 20 30 28 45 32 9 2 19 4 29 6 64 14 137 30 141 87 5 57-69 92-140 125z m107-122c-3-40-92-52-145-65-24-6-38-19-60-40-1-2-3-3-4-5-2-1-3-3-5-4-21-22-34-36-40-60-13-53-25-142-65-145 0 0-1 0-2 0-42 0-78 96-109 158-32 64-18 106 23 146 8 8 17 18 29 30 12 12 27 27 44 44 12 12 22 22 30 30 25 25 51 40 82 40 19 0 40-6 64-18 63-32 162-68 158-111z m-240-16l32 0 0 32-32 0z m0 48l32 0 0 32-32 0z m48 0l32 0 0 32-32 0z m0-48l32 0 0 32-32 0z m-122-96l12 12c6 6 6 16 0 22-6 6-16 6-22 0l-12-12-12 12c-6 6-16 6-22 0-6-6-6-16 0-22l12-12-12-12c-6-6-6-16 0-22 6-6 16-6 22 0l12 13 13-13c6-6 15-6 21 0 6 6 6 16 0 22z"/>
</font>
</defs>
</svg>
